<?xml version="1.0" standalone="no"?>
<!DOCTYPE svg PUBLIC "-//W3C//DTD SVG 1.1//EN" "http://www.w3.org/Graphics/SVG/1.1/DTD/svg11.dtd" >
<svg xmlns="http://www.w3.org/2000/svg">
<metadata></metadata>
<defs>
<font id="helvetica_cyplain" horiz-adv-x="934" >
<font-face units-per-em="2048" ascent="1638" descent="-410" />
<missing-glyph horiz-adv-x="467" />
<glyph unicode="&#xd;" horiz-adv-x="467" />
<glyph unicode=" "  horiz-adv-x="467" />
<glyph unicode="&#x09;" horiz-adv-x="467" />
<glyph unicode="&#xa0;" horiz-adv-x="467" />
<glyph unicode="!" horiz-adv-x="467" d="M350 0h-141v213h141v-213zM209 758v735h141v-735l-37 -416h-69z" />
<glyph unicode="&#x22;" horiz-adv-x="596" d="M512 1223l-45 -277h-68l-45 277v227h158v-227zM246 1223l-45 -277h-68l-45 277v227h158v-227z" />
<glyph unicode="#" d="M555 594l45 313h-207l-45 -313h207zM416 1073l207 -2l59 400h133l-59 -398h155v-166h-180l-45 -313h168v-164h-197l-63 -430h-127l61 430h-206l-66 -430h-127l61 430h-167v164h194l45 313h-176v166h199l61 398h129z" />
<glyph unicode="$" d="M727 383q0 116 -73 183q-47 43 -146 79v-563q219 57 219 301zM208 1075q0 -92 56 -166t144 -94v524q-86 -1 -146 -91q-54 -81 -54 -173zM525 1339q-9 0 -17 -2v-538q214 -78 268 -127q94 -85 94 -285q0 -184 -88 -298q-96 -124 -274 -132v-213h-100v209q-152 34 -214 85 q-139 114 -139 388h129q16 -153 39 -205q48 -108 185 -141v584q-168 66 -230 125q-98 93 -98 267q0 167 81 275q86 115 247 137v109h100v-111q156 -12 245 -125q83 -106 83 -266v-10h-136q-5 98 -42 174q-49 100 -133 100z" />
<glyph unicode="%" horiz-adv-x="1493" d="M1325 309q0 80 -44 149q-50 79 -126 79t-126 -79q-44 -69 -44 -149q0 -79 44 -148q51 -79 126 -79t126 79q44 69 44 148zM506 1053q0 80 -44 149q-50 78 -126 78t-126 -78q-44 -69 -44 -149t44 -149q50 -79 126 -79t126 79q44 69 44 149zM1442 309q0 -133 -75 -236 q-84 -114 -212 -114t-212 114q-75 103 -75 236t75 236q83 114 212 114t212 -114q75 -103 75 -236zM623 1053q0 -133 -75 -237q-83 -114 -212 -114t-212 114q-75 104 -75 237t75 236q84 114 212 114t212 -114q75 -103 75 -236zM471 -41h-113l664 1491h113z" />
<glyph unicode="&#x26;" horiz-adv-x="1120" d="M443 100q79 0 148 56q33 26 114 120l-271 410q-103 -85 -123 -107q-84 -94 -84 -205q0 -99 57 -181q64 -93 159 -93zM473 881q52 24 104 83q71 81 71 171q0 75 -34 130q-41 66 -111 66q-71 0 -108 -68q-29 -54 -29 -131q0 -106 107 -251zM780 152q-107 -115 -154 -146 q-81 -53 -202 -53q-162 0 -254 125q-82 112 -82 280q0 222 178 375l86 74l-57 96q-69 116 -69 234q0 128 79 220q83 97 209 97q118 0 199 -99q76 -93 76 -213q0 -182 -146 -298l-88 -70l219 -332q53 143 53 232v8h136v-13q0 -161 -99 -358l205 -311h-184z" />
<glyph unicode="'" horiz-adv-x="322" d="M238 1223l-45 -277h-68l-45 277v227h158v-227z" />
<glyph unicode="(" horiz-adv-x="559" d="M262 528q0 -502 227 -964h-94q-125 202 -198.5 463t-73.5 501q0 241 73 501t199 464h94q-227 -463 -227 -965z" />
<glyph unicode=")" horiz-adv-x="559" d="M430 528q0 -236 -74 -500t-198 -464h-95q228 462 228 964t-228 965h95q124 -201 198 -464t74 -501z" />
<glyph unicode="*" horiz-adv-x="653" d="M276 1286l-8 230h105l-6 -230l174 76l34 -127l-180 -53l113 -185l-82 -71l-104 190l-109 -188l-82 73l117 181l-180 63l30 121z" />
<glyph unicode="+" horiz-adv-x="981" d="M549 547h348v-117h-348v-348h-117v348h-348v117h348v348h117v-348z" />
<glyph unicode="," horiz-adv-x="467" d="M322 0q0 -126 -63 -218q-53 -78 -114 -89v94q103 64 103 213h-101v213h175v-213z" />
<glyph unicode="-" horiz-adv-x="559" d="M78 512v129h399v-129h-399z" />
<glyph unicode="." horiz-adv-x="467" d="M322 213v-213h-177v213h177z" />
<glyph unicode="/" horiz-adv-x="467" d="M477 1450l-397 -1493h-94l399 1493h92z" />
<glyph unicode="0" d="M707 698q0 598 -246 598q-244 0 -244 -598t244 -598q246 0 246 598zM72 702q0 750 389 750q391 0 391 -750q0 -749 -391 -749q-389 0 -389 749z" />
<glyph unicode="1" d="M442 1057h-270v106q177 34 224 78q44 41 87 211h101v-1452h-142v1057z" />
<glyph unicode="2" d="M215 158h633v-158h-791q19 234 58 328q63 150 254 284l176 123q164 115 164 303q0 112 -57 189q-63 86 -171 86q-137 0 -202 -121q-52 -95 -52 -244h-143q0 504 397 504q178 0 282 -131q95 -119 95 -293q0 -258 -240 -424l-192 -133q-52 -36 -115 -111q-97 -115 -96 -202 z" />
<glyph unicode="3" d="M424 96q274 0 274 328q0 259 -266 259q-29 0 -61 -3v133q153 0 213 43q75 54 75 207q0 106 -57 174q-61 74 -164 74q-117 0 -174 -112q-43 -86 -43 -216h-141q6 469 364 469q182 0 280 -118q91 -110 91 -296q0 -207 -143 -288q178 -97 178 -349q0 -187 -103 -313 q-111 -135 -294 -135q-209 0 -314 150q-86 123 -86 319h142q0 -106 31 -184q56 -142 198 -142z" />
<glyph unicode="4" d="M180 512h379v649zM47 535l543 917h110v-940h172v-143h-172v-369h-141v369h-512v166z" />
<glyph unicode="5" d="M188 1452h615v-160h-494l-51 -422q83 86 211 86q144 0 251 -97q142 -129 142 -386q0 -200 -98 -349q-113 -171 -303 -171q-230 0 -335 179q-58 98 -67 224h152q32 -252 252 -252q120 0 185 121q54 98 54 228q0 147 -50 239q-64 117 -199 117q-91 0 -141 -44 q-16 -14 -83 -106h-133z" />
<glyph unicode="6" d="M473 766q-117 0 -186 -114q-58 -97 -58 -222q0 -120 60 -221q70 -119 182 -119q115 0 185 113q59 97 59 219q0 136 -52 229q-64 115 -190 115zM489 1307q-139 0 -219 -200q-61 -153 -61 -316q0 -43 4 -58q88 172 281 172q174 0 276 -145q92 -130 92 -318q0 -199 -95 -335 q-108 -154 -298 -154q-236 0 -330 227q-73 176 -73 541q0 366 138 563q118 168 296 168q142 0 240 -121q90 -111 98 -258h-146q0 91 -55 160q-59 74 -148 74z" />
<glyph unicode="7" d="M872 1452v-154l-131 -231q-68 -121 -153 -322q-150 -358 -199 -745h-160q57 274 91 391q50 170 126 336q78 161 277 573h-645v152h794z" />
<glyph unicode="8" d="M217 387q0 -108 63 -194q70 -95 175 -95q116 0 190 102q64 89 64 193q0 122 -62 210q-69 99 -186 99q-123 0 -188 -100q-56 -85 -56 -215zM254 1071q0 -106 51 -177q58 -79 160 -79q95 0 154 81q53 73 53 171t-54 168q-58 78 -153 78q-96 0 -156 -75q-55 -69 -55 -167z M819 1069q0 -202 -149 -303q75 -25 131 -127q61 -111 61 -252q0 -153 -106 -286q-118 -148 -291 -148q-184 0 -298 134q-104 123 -104 290q0 138 40 221q43 90 153 164q-84 61 -118 132q-32 68 -32 175q0 157 96 268q100 115 255 115q173 0 269 -106q93 -103 93 -277z" />
<glyph unicode="9" d="M444 629q115 0 188 112q64 99 64 220q0 132 -54 229q-67 119 -189 119q-94 0 -163 -82q-79 -93 -79 -248q0 -138 47 -231q61 -119 186 -119zM655 297q62 163 62 305q0 43 -4 60q-39 -74 -112 -121t-155 -47q-187 0 -291 142q-92 126 -92 320q0 199 95 338 q109 158 299 158q233 0 331 -268q66 -180 66 -463q0 -289 -68 -481q-101 -287 -337 -287q-183 0 -261 96q-100 122 -100 273h145q0 -95 53 -158q56 -66 150 -66q143 0 219 199z" />
<glyph unicode=":" horiz-adv-x="467" d="M358 213v-213h-174v213h174zM358 1075v-213h-174v213h174z" />
<glyph unicode=";" horiz-adv-x="467" d="M360 1057v-213h-174v213h174zM360 0q0 -126 -62 -218q-53 -78 -114 -89v94q99 64 103 213h-101v213h174v-213z" />
<glyph unicode="&#x3c;" horiz-adv-x="981" d="M233 475l664 -332v-163l-821 423v144l821 424v-164z" />
<glyph unicode="=" horiz-adv-x="981" d="M897 256h-813v117h813v-117zM897 604h-813v117h813v-117z" />
<glyph unicode="&#x3e;" horiz-adv-x="981" d="M84 -20v163l657 332l-657 332v164l821 -424v-144z" />
<glyph unicode="?" d="M557 213v-213h-154v213h154zM403 522q0 125 148 299q51 61 67 80q40 50 54 86q29 73 29 143q0 96 -52 167q-58 79 -151 79q-152 0 -201 -149q-18 -55 -23 -195h-145v8q0 203 76 325q92 148 284 148q180 0 275 -108q90 -102 90 -284q0 -83 -16 -138q-28 -98 -187 -276 q-94 -106 -94 -211v-97h-154v123z" />
<glyph unicode="@" horiz-adv-x="1704" d="M752 877q-97 -79 -136 -234q-23 -92 -23 -150q0 -83 41 -157q48 -87 125 -87q100 0 171 136q35 68 63 177.5t28 184.5q0 124 -103 162q-24 9 -52 9q-63 0 -114 -41zM1166 252q10 0 22 2q133 38 211 193q67 134 67 287q0 27 -4 57q-26 195 -133 331q-53 67 -142 126 q-161 106 -325 106q-227 0 -412 -190q-166 -170 -225 -406q-23 -92 -23 -200q0 -466 394 -658q103 -50 219 -50q130 0 336 76l49 -137q-195 -89 -383 -89q-140 0 -264 50q-93 38 -211 135q-157 130 -217 277q-70 172 -70 375q0 107 23 206q74 320 274 530q225 236 533 236 q144 0 303 -79q164 -82 260 -213q148 -203 148 -461q0 -159 -78 -346q-91 -218 -250 -279q-55 -21 -125 -21q-52 0 -84 11q-97 33 -107 143q-39 -49 -52 -62q-83 -83 -189 -83q-52 0 -95 22q-107 55 -155 207q-20 63 -20 141q0 58 12 121q44 231 192 363q106 95 227 95 q92 0 158 -85q39 -50 49 -98l37 135h139l-161 -612q-11 -42 -11 -64q0 -38 23 -65t60 -27z" />
<glyph unicode="A" horiz-adv-x="1120" d="M750 606l-181 654l-200 -654h381zM29 0l444 1493h193l430 -1493h-176l-127 459h-461l-135 -459h-168z" />
<glyph unicode="B" horiz-adv-x="1120" d="M684 150q106 0 163 99q45 78 46 185q2 268 -295 268h-307v-552h393zM614 852q222 0 222 248q0 109 -64.5 176t-173.5 67h-307v-491h323zM133 1493h481q176 0 277.5 -100t101.5 -275q0 -244 -157 -327q23 -13 69 -42q57 -38 94 -105q48 -87 48 -208q0 -202 -112 -329 q-94 -107 -200 -107h-602v1493z" />
<glyph unicode="C" horiz-adv-x="1212" d="M623 1366q-203 0 -305 -227q-76 -170 -76 -404t76 -404q101 -227 305 -227q153 0 249 151q73 114 103 292h162q-39 -278 -181 -441q-49 -57 -133 -100q-103 -53 -209 -53q-272 0 -417 271q-117 218 -117 511q0 301 117 517q144 266 417 266q104 0 209 -54 q84 -43 133 -100q104 -120 158 -332h-164q-104 334 -327 334z" />
<glyph unicode="D" horiz-adv-x="1212" d="M307 150h342q184 0 263 248q51 162 51 395q0 209 -74 358q-95 192 -283 192h-299v-1193zM150 1493h471q262 0 394 -248q105 -197 105 -483q0 -353 -142 -567q-129 -195 -312 -195h-516v1493z" />
<glyph unicode="E" horiz-adv-x="1120" d="M1001 1493v-150h-692v-491h666v-150h-666v-552h721v-150h-878v1493h849z" />
<glyph unicode="F" horiz-adv-x="1026" d="M973 1493v-150h-664v-491h582v-150h-582v-702h-157v1493h821z" />
<glyph unicode="G" horiz-adv-x="1307" d="M1190 793v-793h-100l-37 176q-104 -112 -163 -151q-109 -72 -255 -72q-272 0 -427 251q-134 217 -134 525q0 304 133 523q161 266 459 266q270 0 405 -187q84 -117 105 -289h-156q-7 111 -96 209q-105 115 -258 115q-229 0 -343 -215q-90 -170 -90 -420q0 -240 95 -413 q117 -214 338 -214q175 0 284 146q99 133 99 317v76h-373v150h514z" />
<glyph unicode="H" horiz-adv-x="1212" d="M297 702v-702h-158v1493h158v-641h627v641h157v-1493h-157v702h-627z" />
<glyph unicode="I" horiz-adv-x="467" d="M326 1493v-1493h-158v1493h158z" />
<glyph unicode="J" horiz-adv-x="840" d="M186 307q0 -82 46 -140q50 -63 130 -63q125 0 169 127q26 75 26 232v1030h158v-1141q0 -158 -84 -272q-94 -127 -252 -127q-198 0 -289 143q-61 96 -61 221v158h157v-168z" />
<glyph unicode="K" horiz-adv-x="1120" d="M291 0h-158v1493h158v-641h94l514 641l186 -1l-569 -706l596 -786h-201l-528 702h-92v-702z" />
<glyph unicode="L" d="M293 150h602v-150h-760v1493h158v-1343z" />
<glyph unicode="M" horiz-adv-x="1399" d="M287 1212v-1212h-162v1493h225l352 -1270l353 1270h223v-1493h-162v1212l-334 -1212h-161z" />
<glyph unicode="N" horiz-adv-x="1212" d="M285 1196v-1196h-158v1493h186l615 -1208v1208h157v-1493h-180z" />
<glyph unicode="O" horiz-adv-x="1307" d="M223 735q0 -240 96 -416q117 -215 336 -215q220 0 336 215q94 174 94 416t-94 416q-116 215 -336 215q-219 0 -336 -215q-96 -176 -96 -416zM1245 735q0 -305 -137 -524q-162 -258 -453 -258q-288 0 -451 251q-141 217 -141 521q0 311 135 531q161 262 457 262 q292 0 453 -256q137 -217 137 -527z" />
<glyph unicode="P" horiz-adv-x="1120" d="M713 782q39 0 92 62q72 84 72 217q0 139 -82 220q-63 62 -131 62h-353v-561h402zM666 1493q155 0 249 -84q121 -108 121 -346q0 -212 -115 -333q-93 -97 -206 -97h-404v-633h-157v1493h512z" />
<glyph unicode="Q" horiz-adv-x="1307" d="M815 401l141 -137q129 170 129 471q0 242 -94 416q-116 215 -336 215q-219 0 -336 -215q-96 -176 -96 -416t96 -416q117 -215 336 -215q82 0 203 70l-131 131zM1145 -106l-170 161q-160 -102 -320 -102q-288 0 -451 251q-141 217 -141 521q0 311 135 531q161 262 457 262 q292 0 453 -256q137 -217 137 -527q0 -357 -172 -579l158 -156z" />
<glyph unicode="R" horiz-adv-x="1212" d="M1169 0h-182l-399 641h-275v-641h-157v1493h549q209 0 302 -107q87 -100 87 -317q0 -168 -83 -276q-87 -112 -249 -140zM936 1079q0 147 -80 214q-59 50 -149 50h-394v-552h396q115 0 175 89q52 77 52 199z" />
<glyph unicode="S" horiz-adv-x="1120" d="M537 1368q-114 0 -190.5 -73.5t-76.5 -186.5q0 -167 217 -236l316 -100q112 -35 176 -132q63 -93 63 -212q0 -213 -128 -344t-341 -131q-240 0 -369 142q-124 137 -124 378h147q0 -143 62 -237q86 -130 276 -130q140 0 226 74q90 79 90 217q0 160 -140 213 q-99 33 -338 113q-150 51 -217 138.5t-67 242.5q0 192 111.5 303t304.5 111q192 0 296 -78q173 -130 173 -360v-23h-154v21q0 136 -90 215q-86 75 -223 75z" />
<glyph unicode="T" horiz-adv-x="1026" d="M35 1343v150h960v-150h-399v-1343h-158v1343h-403z" />
<glyph unicode="U" horiz-adv-x="1212" d="M301 416q0 -113 66 -200q85 -112 245 -112q163 0 248 112q66 87 66 200v1077h157v-1077q0 -161 -98 -292q-128 -171 -373 -171q-244 0 -372 171q-97 129 -97 292v1077h158v-1077z" />
<glyph unicode="V" horiz-adv-x="1120" d="M1083 1493l-430 -1493h-170l-432 1493h168l354 -1264l342 1264h168z" />
<glyph unicode="W" horiz-adv-x="1585" d="M1561 1493l-314 -1493h-172l-280 1217l-277 -1217h-172l-309 1493h174l227 -1202l275 1202h168l272 -1202l231 1202h177z" />
<glyph unicode="X" horiz-adv-x="1120" d="M1090 0h-195l-326 608l-338 -608h-194l430 766l-399 727h190l311 -571l312 571h192l-409 -727z" />
<glyph unicode="Y" horiz-adv-x="1120" d="M569 768l349 725h192l-461 -909v-584h-160v584l-466 909h192z" />
<glyph unicode="Z" horiz-adv-x="1026" d="M977 1493v-174l-744 -1169h746v-150h-932v164l746 1179h-695v150h879z" />
<glyph unicode="[" horiz-adv-x="467" d="M420 1339h-170v-1624h170v-153h-311v1931h311v-154z" />
<glyph unicode="\" horiz-adv-x="467" d="M80 1493l397 -1534h-92l-399 1534h94zM385 -41z" />
<glyph unicode="]" horiz-adv-x="467" d="M350 1493v-1933h-311v153h170v1626h-170v154h311z" />
<glyph unicode="^" horiz-adv-x="788" d="M455 1460l258 -778h-117l-203 606l-203 -606h-116l258 778h123z" />
<glyph unicode="_" d="M-37 -358v102h1008v-102h-1008z" />
<glyph unicode="`" horiz-adv-x="559" d="M285 1212l-248 304h188l162 -304h-102z" />
<glyph unicode="a" d="M299 451q-23 -13 -51 -63q-33 -59 -33 -112q0 -78 41 -134q46 -62 121 -62q124 0 210 92q66 71 66 119v256q-53 -26 -183 -49q-126 -21 -171 -47zM899 80v-109l-119 -18q-112 34 -123 156q-77 -73 -122 -102q-84 -54 -173 -54q-292 0 -292 328q0 221 186 288 q95 34 190 45q115 13 136 19q69 19 69 82v127q-20 133 -213 133q-95 0 -147 -65q-47 -59 -47 -156h-133v53q0 134 106 220q98 79 236 79q125 0 223 -50q123 -62 123 -175v-742q0 -27 23.5 -45.5t50.5 -18.5q14 0 26 5z" />
<glyph unicode="b" d="M483 973q-98 0 -169 -106q-83 -124 -83 -345q0 -163 46 -278q65 -160 204 -160q131 0 195 178q45 126 45 285q0 150 -47 267q-63 159 -191 159zM231 946q30 57 90 101q81 59 183 59q188 0 291 -190q84 -155 84 -359q0 -239 -77 -397q-101 -207 -315 -207q-158 0 -274 166 v-119h-123v1493h141v-547z" />
<glyph unicode="c" horiz-adv-x="840" d="M422 -47q-203 0 -299 207q-72 155 -72 385q0 214 88 370q107 191 305 191q171 0 266 -113q86 -104 91 -280h-139q-7 109 -56 179q-57 83 -160 83q-125 0 -192 -168q-49 -125 -49 -272q0 -166 42 -282q62 -169 199 -169q179 0 220 287h135q-7 -217 -128 -327 q-101 -91 -251 -91z" />
<glyph unicode="d" d="M690 526q0 220 -82 343q-71 106 -170 106q-128 0 -190 -169q-45 -120 -45 -274q0 -175 56 -301q65 -147 181 -147q137 0 202 160q48 118 48 282zM831 0h-122v123q-88 -170 -273 -170q-210 0 -312 200q-79 155 -79 388q0 215 78 369q100 196 295 196q191 0 272 -162v549 h141v-1493z" />
<glyph unicode="e" d="M471 977q-216 0 -254 -356h492q0 138 -50 234q-63 122 -188 122zM465 84q110 0 175 99q26 39 60 145h144q-63 -375 -377 -375q-220 0 -321 189q-78 147 -78 388q0 227 90 384q110 192 321 192q210 0 309 -199q75 -151 75 -384q0 -6 -1 -34h-645v-63q0 -109 56 -211 q72 -131 192 -131z" />
<glyph unicode="f" horiz-adv-x="467" d="M31 944v131h119v182q0 102 50 169q56 74 155 74q38 0 79 -9v-117q-28 4 -47 4q-96 0 -96 -118v-185h141v-131h-141v-944h-141v944h-119z" />
<glyph unicode="g" d="M444 975q-97 0 -161 -92q-82 -118 -82 -363q0 -154 44 -272q61 -164 189 -164q140 0 202 159q44 112 44 277q0 162 -42 282q-61 173 -194 173zM821 182q0 -300 -60 -434q-89 -199 -345 -199q-145 0 -236 91.5t-100 236.5h141q5 -67 43 -122q56 -81 164 -81q192 0 234 230 q18 100 18 225q-36 -65 -99 -110q-80 -58 -173 -58q-185 0 -283 200q-76 157 -76 363q0 222 78 379q101 203 301 203q178 0 252 -162v131h141v-893z" />
<glyph unicode="h" d="M258 1493v-547q112 160 270 160q131 0 209 -79t78 -210v-817h-139v748q0 82 -43 149q-49 78 -127 78q-103 0 -177 -88q-71 -84 -71 -189v-698h-141v1493h141z" />
<glyph unicode="i" horiz-adv-x="373" d="M111 1280v213h141v-213h-141zM111 0v1075h141v-1075h-141z" />
<glyph unicode="j" horiz-adv-x="373" d="M51 -313q66 9 66 90v1298h141v-1311q0 -55 -27 -106q-35 -65 -104 -92q-44 -17 -110 -17q-24 0 -48 2v125zM258 1493v-213h-141v213h141z" />
<glyph unicode="k" horiz-adv-x="840" d="M238 0h-140v1493h140v-872h63l324 454h159l-356 -495l416 -580h-166l-354 489h-86v-489z" />
<glyph unicode="l" horiz-adv-x="373" d="M256 1493v-1493h-141v1493h141z" />
<glyph unicode="m" horiz-adv-x="1399" d="M260 1075v-137q74 168 260 168q184 0 238 -162q40 77 87 112q68 50 181 50q256 0 256 -266v-840h-141v813q0 74 -47.5 118t-122.5 44q-90 0 -146 -72q-53 -66 -53 -158v-745h-141v788q0 81 -41 132q-44 55 -123 55q-94 0 -153 -84q-54 -76 -54 -174v-717h-141v1075h141z " />
<glyph unicode="n" d="M258 940q73 166 277 166q131 0 206.5 -79.5t75.5 -211.5v-815h-141v772q0 87 -44 143q-47 60 -132 60q-133 0 -195 -131q-47 -98 -47 -248v-596h-141v1075h141v-135z" />
<glyph unicode="o" d="M713 530q0 167 -62 296q-72 149 -192 149q-140 0 -206 -163q-48 -118 -48 -282q0 -171 61 -298q71 -148 193 -148t193 148q61 127 61 298zM459 1106q215 0 317 -191q80 -149 80 -385t-80 -385q-102 -192 -317 -192q-216 0 -318 191q-80 150 -80 386q0 234 81 384 q103 192 317 192z" />
<glyph unicode="p" d="M231 559q0 -165 45 -286q65 -171 203 -171q135 0 197 158q45 113 45 272q0 157 -48 278q-66 165 -200 165q-116 0 -185 -148q-57 -123 -57 -268zM90 1075h123v-135q40 75 114 120.5t158 45.5q199 0 304 -185q90 -158 90 -407q0 -211 -81 -366q-102 -195 -294 -195 q-189 0 -273 162v-564h-141v1524z" />
<glyph unicode="q" d="M440 102q136 0 203 168q49 122 49 281q0 155 -50 270q-67 154 -202 154q-129 0 -193 -175q-46 -126 -46 -282q0 -146 48 -261q65 -155 191 -155zM690 115q-81 -162 -272 -162q-196 0 -296 201q-77 156 -77 374q0 222 83 380q105 198 308 198q190 0 273 -166v135h122 v-1524h-141v564z" />
<glyph unicode="r" horiz-adv-x="559" d="M258 1075v-168q84 187 203 199h78v-160q-75 0 -133 -24q-148 -82 -148 -342v-580h-141v1075h141z" />
<glyph unicode="s" horiz-adv-x="840" d="M414 78q219 0 219 188q0 130 -96 158q-175 51 -293 100q-166 70 -166 269q0 143 92 228t236 85q322 0 327 -332h-139q0 201 -201 201q-70 0 -124 -54t-54 -124q0 -111 104 -156q7 -3 177 -55q128 -39 178 -76q98 -72 98 -225q0 -157 -100 -247q-95 -87 -254 -87 q-361 0 -361 366h133q6 -90 52 -155q60 -84 172 -84z" />
<glyph unicode="t" horiz-adv-x="467" d="M426 1075v-131h-139v-797q0 -63 74 -63q27 0 65 8v-125q-70 -15 -110 -15q-72 0 -120 40q-51 43 -51 114v838h-122v131h122v291h142v-291h139z" />
<glyph unicode="u" d="M668 115q-91 -162 -279 -162q-280 0 -280 354v768h141v-788q0 -87 40 -141q44 -62 128 -62q120 0 190 107q60 92 60 219v665h141v-1075h-141v115z" />
<glyph unicode="v" horiz-adv-x="840" d="M16 1075h158l229 -870l254 870h158l-336 -1075h-153z" />
<glyph unicode="w" horiz-adv-x="1212" d="M168 1075l174 -837l170 837h174l164 -835l182 835h158l-260 -1075h-160l-178 817l-170 -817h-160l-252 1075h158z" />
<glyph unicode="x" horiz-adv-x="840" d="M29 0l309 551l-291 524h160l213 -379l213 379h158l-299 -522l303 -553h-158l-223 401l-226 -401h-159z" />
<glyph unicode="y" horiz-adv-x="840" d="M403 -248q-61 -203 -232 -201q-48 0 -83 27v129q42 -19 77 -19q65 0 105 126l54 170l-291 1091h149l226 -813l243 813h152z" />
<glyph unicode="z" horiz-adv-x="840" d="M221 131h547v-131h-717v141l537 805h-500v129h660v-149z" />
<glyph unicode="{" horiz-adv-x="561" d="M463 -438l-123 6q-42 2 -86 67q-50 74 -50 181l1 361q0 117 -17 170q-29 90 -116 112v141q87 22 116 112q11 33 17 169l-1 362q0 106 50 180q44 66 86 68l123 6v-135l-74 -10q-59 -8 -59 -131v-363q0 -209 -121 -330q121 -120 121 -327v-363q0 -125 59 -133l74 -10v-133z " />
<glyph unicode="|" horiz-adv-x="436" d="M168 -440v1933h100v-1933h-100z" />
<glyph unicode="}" horiz-adv-x="561" d="M440 459q-87 -22 -116 -112q-17 -53 -17 -170v-361q0 -109 -49 -181q-44 -65 -86 -67l-123 -6v135l74 10q59 8 59 131v363q0 220 123 327q-123 123 -123 330v363q0 123 -59 131l-74 10v135l123 -6q42 -2 86 -67q49 -72 49 -181v-362q0 -116 17 -169q29 -90 116 -112v-141 z" />
<glyph unicode="~" horiz-adv-x="981" d="M203 851q44 46 103 46q50 0 87 -27l219 -161q31 -23 65 -23q89 0 89 125q0 16 -2 31h88q1 -15 1 -29q0 -92 -43 -172q-52 -97 -136 -97q-59 0 -129 54l-180 139q-30 29 -59 29q-44 0 -70 -55q-20 -43 -20 -93q0 -11 1 -22h-90q4 180 76 255z" />
<glyph unicode="&#xa3;" d="M616 655h-235q22 -99 22 -129q0 -54 -22 -116q-36 -101 -91 -175q-29 -37 -87 -110q95 60 214 60q64 0 146 -29q93 -33 133 -33q42 0 142 67l61 -120q-88 -114 -220 -114q-77 0 -241 69q-59 25 -115 25q-57 0 -113 -29q-37 -24 -75 -48l-80 136q212 210 212 393 q0 62 -40 153h-184v113h141q-53 95 -69 139q-25 69 -25 155q-1 164 112 292q118 133 280 133q208 0 300 -143q70 -109 80 -328h-147q-10 147 -47 219q-54 106 -182 106q-80 0 -150 -63q-86 -78 -86 -209q0 -104 98 -301h268v-113z" />
<glyph unicode="&#xa4;" d="M821 989l-98 -112q50 -85 50 -189q0 -70 -56 -182l96 -117l-98 -92l-88 92q-88 -68 -165 -68q-67 0 -159 52l-92 -84l-92 100l84 105q-56 84 -56 201q0 126 64 190l-98 123l90 96l98 -100q96 56 165 56q67 0 163 -56l94 90zM629 696q0 84 -45 137q-48 56 -131 56 q-82 0 -127 -60q-41 -54 -41 -139q0 -199 179 -199q77 0 124 66q41 59 41 139z" />
<glyph unicode="&#xa7;" d="M209 667q0 -74 42 -136q13 -19 71 -80q47 -50 274 -234q32 17 67 68q48 69 48 141q0 129 -103 219l-274 240q-71 -62 -91 -93q-34 -51 -34 -125zM439 -296q76 0 123 61q43 56 43 134q0 93 -79 167q-155 120 -304 240t-149 335q0 116 44 184q36 55 139 127q-81 81 -81 209 q0 125 88 227q92 105 216 105q149 0 231 -108q74 -97 74 -250q0 -33 -4 -62h-139l3 58q0 85 -41 150q-47 76 -127 76q-75 0 -117 -67q-35 -56 -35 -136q0 -77 137 -177q63 -45 227 -166q163 -124 163 -356q0 -146 -78 -236q-51 -59 -103 -72q85 -132 85 -230 q0 -150 -83 -250q-89 -107 -236 -107q-140 0 -230 116q-83 108 -83 252q0 25 4 43h145q-1 -13 -1 -27q0 -89 40 -158q48 -82 128 -82z" />
<glyph unicode="&#xa9;" horiz-adv-x="1638" d="M49 721q0 330 221 553t551 223q323 0 545.5 -221t222.5 -543q0 -323 -222.5 -545.5t-545.5 -222.5q-316 0 -544 220.5t-228 535.5zM188 748q0 -284 173 -474q179 -196 460 -196q273 0 453 192q176 188 176 463q0 273 -177 460q-180 191 -452 191q-265 0 -449 -185.5 t-184 -450.5zM1096 584h131q-35 -121 -82 -181q-110 -141 -307 -141q-202 0 -326 136q-121 131 -121 335q0 206 121 335.5t326 129.5q246 0 344 -182q28 -51 43 -129h-129q-51 198 -258 198q-145 0 -230 -102q-78 -95 -78 -244t82 -252q88 -112 234 -112q205 0 250 209z" />
<glyph unicode="&#xab;" d="M504 647l260 250v-172l-172 -168l172 -168v-172l-260 252v178zM164 647l264 250v-172l-180 -168l180 -168v-172l-264 252v178z" />
<glyph unicode="&#xac;" horiz-adv-x="981" d="M68 565v156h845v-553h-127v397h-718z" />
<glyph unicode="&#xae;" horiz-adv-x="1638" d="M49 721q0 330 221 553t551 223q323 0 545.5 -221t222.5 -543q0 -323 -222.5 -545.5t-545.5 -222.5q-316 0 -544 220.5t-228 535.5zM188 748q0 -284 173 -474q179 -196 460 -196q273 0 453 192q176 188 176 463q0 274 -176 461q-180 190 -453 190q-266 0 -449.5 -185 t-183.5 -451zM522 285v895h346q314 0 314 -254q0 -211 -236 -246l256 -395h-149l-244 385h-147v-385h-140zM662 1067v-285h145q114 0 161 20q74 32 74 128q0 137 -196 137h-184z" />
<glyph unicode="&#xb0;" horiz-adv-x="672" d="M336 920q82 0 136 73q48 67 48 152t-49 152q-55 73 -137 73t-134 -73q-48 -65 -48 -150q0 -96 53.5 -161.5t130.5 -65.5zM84 1145q-1 117 66 207q73 100 186 100q112 0 186 -100q66 -91 66 -207q0 -117 -66 -207q-73 -100 -186 -100t-186 100q-65 89 -66 207z" />
<glyph unicode="&#xb1;" horiz-adv-x="981" d="M913 123v-123h-845v123h845zM549 801h348v-109h-348v-383h-117v383h-348v109h348v383h117v-383z" />
<glyph unicode="&#xb6;" horiz-adv-x="901" d="M535 -365zM778 1360v-1725h-108v1725h-135v-1725h-111v893q-19 2 -55 7q-132 22 -215 174q-74 135 -74 288q0 97 31 197q49 157 167 239q86 60 162 60h437v-133h-99z" />
<glyph unicode="&#xbb;" d="M502 897l256 -250v-178l-258 -252v172l180 168l-178 168v172zM172 897l246 -250v-178l-254 -252v172l184 168l-176 168v172z" />
<glyph unicode="&#xf7;" horiz-adv-x="981" d="M403 971h175v-213h-175v213zM403 193h175v-213h-175v213zM84 403v144h813v-144h-813z" />
<glyph unicode="&#x192;" d="M483 1171q12 80 56 166q69 133 182 174q22 8 48 8q72 0 140 -38l-47 -164q-17 11 -33 23q-30 18 -57 18q-35 0 -67 -31q-67 -65 -87 -221l-20 -156h186v-143h-213l-116 -764q-15 -100 -31 -161q-83 -321 -323 -321q-54 0 -83 21l31 185q22 -39 81 -39q47 0 71 18 q63 63 84 193l141 868h-188v143h213z" />
<glyph unicode="&#x301;" horiz-adv-x="467" />
<glyph unicode="&#x306;" horiz-adv-x="467" />
<glyph unicode="&#x308;" horiz-adv-x="467" />
<glyph unicode="&#x338;" horiz-adv-x="467" d="M477 1450l-397 -1493h-94l399 1493h92z" />
<glyph unicode="&#x394;" horiz-adv-x="1253" d="M991 100l-397 959l-447 -959h844zM12 0l656 1409l577 -1409h-1233z" />
<glyph unicode="&#x3bc;" d="M389 -47q-98 0 -139 24v-426h-141v1524h141v-780q0 -202 173 -202q245 0 245 378v604h141v-1075h-141v115q-91 -162 -279 -162z" />
<glyph unicode="&#x404;" horiz-adv-x="1212" d="M242 852h446v-150h-450q0 -213 84 -384q105 -214 294 -214q139 0 233 129q75 103 107 259h164q-45 -242 -170 -386q-49 -57 -133 -100q-103 -53 -209 -53q-271 0 -417 269q-117 216 -117 513t117 514q145 269 417 269q104 0 209 -54q84 -43 133 -100q104 -120 158 -332 h-164q-104 334 -328 334q-176 0 -277 -177q-76 -133 -97 -337z" />
<glyph unicode="&#x406;" horiz-adv-x="467" d="M326 1493v-1493h-158v1493h158z" />
<glyph unicode="&#x40e;" horiz-adv-x="1120" d="M935 1855q-15 -227 -321 -227q-304 0 -320 227h179q18 -124 141 -124q126 0 142 124h179zM350 135q79 0 132 69q40 52 40 97q0 55 -28 123l-443 1069h168l406 -963l331 963h168l-411 -1184q-114 -329 -369 -329q-85 0 -162 49v157q59 -51 168 -51z" />
<glyph unicode="&#x410;" horiz-adv-x="1120" d="M750 606l-181 654l-200 -654h381zM29 0l444 1493h193l430 -1493h-176l-127 459h-461l-135 -459h-168z" />
<glyph unicode="&#x41e;" horiz-adv-x="1307" d="M223 735q0 -240 96 -416q117 -215 336 -215q220 0 336 215q94 174 94 416t-94 416q-116 215 -336 215q-219 0 -336 -215q-96 -176 -96 -416zM1245 735q0 -305 -137 -524q-162 -258 -453 -258q-288 0 -451 251q-141 217 -141 521q0 311 135 531q161 262 457 262 q292 0 453 -256q137 -217 137 -527z" />
<glyph unicode="&#x423;" horiz-adv-x="1120" d="M350 135q79 0 132 69q40 52 40 97q0 55 -28 123l-443 1069h168l406 -963l331 963h168l-411 -1184q-114 -329 -369 -329q-85 0 -162 49v157q59 -51 168 -51z" />
<glyph unicode="&#x42a;" horiz-adv-x="1384" d="M965 150q115 0 168 106q38 76 38 195q0 251 -292 251h-291v-552h377zM430 0v1323h-403v170h561v-641h307q432 0 432 -408q0 -230 -120 -353q-89 -91 -191 -91h-586z" />
<glyph unicode="&#x42c;" horiz-adv-x="1104" d="M668 150q115 0 168 106q38 76 38 195q0 251 -292 251h-291v-552h377zM291 852h307q432 0 432 -408q0 -230 -120 -353q-89 -91 -191 -91h-586v1493h158v-641z" />
<glyph unicode="&#x42d;" horiz-adv-x="1212" d="M592 1366q-223 0 -328 -334h-164q124 486 500 486q272 0 417 -269q118 -219 118 -514t-118 -513q-146 -269 -417 -269q-213 0 -352 169q-117 142 -160 370h164q33 -157 107 -259q94 -129 233 -129q188 0 294 214q85 172 85 384h-451v150h447q-21 203 -98 337 q-102 177 -277 177z" />
<glyph unicode="&#x42e;" horiz-adv-x="1798" d="M715 735q0 -242 95 -416q117 -215 337 -215t336 215q94 174 94 416t-94 416q-116 215 -336 215t-337 -215q-95 -174 -95 -416zM297 702v-702h-158v1493h158v-641h264q28 277 165 457q159 209 421 209q290 0 452 -256q138 -218 138 -527q0 -308 -138 -526 q-162 -256 -452 -256q-276 0 -439 244q-138 207 -153 505h-258z" />
<glyph unicode="&#x42f;" horiz-adv-x="1171" d="M524 791h355v552h-353q-90 0 -149 -50q-80 -67 -80 -214q0 -122 52 -199q60 -89 175 -89zM139 1069q0 217 87 317q93 107 302 107h508v-1493h-157v641h-234l-420 -641h-182l428 653q-162 28 -249 140q-83 108 -83 276z" />
<glyph unicode="&#x430;" d="M299 451q-23 -13 -51 -63q-33 -59 -33 -112q0 -78 41 -134q46 -62 121 -62q124 0 210 92q66 71 66 119v256q-53 -26 -183 -49q-126 -21 -171 -47zM899 80v-109l-119 -18q-112 34 -123 156q-77 -73 -122 -102q-84 -54 -173 -54q-292 0 -292 328q0 221 186 288 q95 34 190 45q115 13 136 19q69 19 69 82v127q-20 133 -213 133q-95 0 -147 -65q-47 -59 -47 -156h-133v53q0 134 106 220q98 79 236 79q125 0 223 -50q123 -62 123 -175v-742q0 -27 23.5 -45.5t50.5 -18.5q14 0 26 5z" />
<glyph unicode="&#x431;" d="M713 530q0 164 -61 275q-71 129 -199 129q-139 0 -202 -142q-46 -104 -46 -262q0 -168 61 -288q70 -138 193 -138t193 138q61 120 61 288zM668 1499h153q0 -172 -243 -215q-270 -47 -332 -303l4 -4q31 33 90 64q77 40 143 40q204 0 299 -184q74 -142 74 -367 q0 -237 -79 -386q-102 -191 -318 -191q-398 0 -398 598q0 744 363 840q57 12 169 38q75 19 75 70z" />
<glyph unicode="&#x432;" d="M555 125q77 0 117 64q35 54 35 135q0 103 -57 146q-50 38 -158 38h-234v-383h297zM504 629q158 0 158 166q0 75 -57 118q-51 39 -128 39h-219v-323h246zM117 1075h452q104 0 175 -75t71 -179q0 -80 -28 -145q-34 -80 -101 -98q55 -9 100 -56q70 -72 70 -207 q0 -144 -86 -236q-73 -79 -158 -79h-495v1075z" />
<glyph unicode="&#x433;" horiz-adv-x="719" d="M676 944h-418v-944h-141v1075h559v-131z" />
<glyph unicode="&#x434;" horiz-adv-x="975" d="M692 944h-268v-135q0 -389 -111 -678h379v813zM283 922v153h551v-944h98v-405h-141v274h-588v-274h-142v405h95q127 282 127 791z" />
<glyph unicode="&#x435;" d="M471 977q-216 0 -254 -356h492q0 138 -50 234q-63 122 -188 122zM465 84q110 0 175 99q26 39 60 145h144q-63 -375 -377 -375q-220 0 -321 189q-78 147 -78 388q0 227 90 384q110 192 321 192q210 0 309 -199q75 -151 75 -384q0 -6 -1 -34h-645v-63q0 -109 56 -211 q72 -131 192 -131z" />
<glyph unicode="&#x436;" horiz-adv-x="1417" d="M1391 0h-166l-355 489h-86v-489h-139v489h-86l-354 -489h-166l416 580l-357 495h160l324 -454h63v454h139v-454h64l323 454h160l-356 -495z" />
<glyph unicode="&#x437;" horiz-adv-x="834" d="M786 281q0 -156 -113 -246q-104 -82 -265 -82q-208 0 -297 157q-54 95 -54 207h133q0 -70 53 -145q67 -94 169 -94q121 0 176 81q37 54 37 122q0 223 -222 223q-30 0 -63 -4v125q14 -1 27 -1q196 0 196 210q0 70 -50 112q-46 39 -118 39q-172 0 -172 -211h-139 q0 332 328 332q143 0 229 -80t86 -223q0 -93 -53 -155q-38 -45 -90 -62q202 -26 202 -305z" />
<glyph unicode="&#x438;" d="M676 1075h141v-1075h-141v809l-418 -809h-141v1075h141v-794z" />
<glyph unicode="&#x439;" d="M780 1505q-16 -227 -321 -227t-321 227h179q18 -125 142 -125q126 0 142 125h179zM817 0h-141v809l-418 -809h-141v1075h141v-794l418 794h141v-1075z" />
<glyph unicode="&#x43a;" horiz-adv-x="840" d="M238 0h-140v1075h140v-454h63l324 454h159l-356 -495l416 -580h-166l-354 489h-86v-489z" />
<glyph unicode="&#x43b;" horiz-adv-x="952" d="M152 -35q-67 0 -123 33v117q44 -31 84 -31q108 0 108 227v764h623v-1075h-142v944h-340v-653q0 -120 -45 -211q-57 -115 -165 -115z" />
<glyph unicode="&#x43c;" horiz-adv-x="1149" d="M1020 0h-141v745l-242 -745h-139l-240 745v-745h-141v1075h168l282 -901l285 901h168v-1075z" />
<glyph unicode="&#x43d;" d="M676 621v454h141v-1075h-141v489h-418v-489h-141v1075h141v-454h418z" />
<glyph unicode="&#x43e;" d="M713 530q0 167 -62 296q-72 149 -192 149q-140 0 -206 -163q-48 -118 -48 -282q0 -171 61 -298q71 -148 193 -148t193 148q61 127 61 298zM459 1106q215 0 317 -191q80 -149 80 -385t-80 -385q-102 -192 -317 -192q-216 0 -318 191q-80 150 -80 386q0 234 81 384 q103 192 317 192z" />
<glyph unicode="&#x43f;" d="M817 0h-141v944h-418v-944h-141v1075h700v-1075z" />
<glyph unicode="&#x440;" d="M231 559q0 -165 45 -286q65 -171 203 -171q135 0 197 158q45 113 45 272q0 157 -48 278q-66 165 -200 165q-116 0 -185 -148q-57 -123 -57 -268zM90 1075h123v-135q40 75 114 120.5t158 45.5q199 0 304 -185q90 -158 90 -407q0 -211 -81 -366q-102 -195 -294 -195 q-189 0 -273 162v-564h-141v1524z" />
<glyph unicode="&#x441;" horiz-adv-x="840" d="M422 -47q-203 0 -299 207q-72 155 -72 385q0 214 88 370q107 191 305 191q171 0 266 -113q86 -104 91 -280h-139q-7 109 -56 179q-57 83 -160 83q-125 0 -192 -168q-49 -125 -49 -272q0 -166 42 -282q62 -169 199 -169q179 0 220 287h135q-7 -217 -128 -327 q-101 -91 -251 -91z" />
<glyph unicode="&#x442;" horiz-adv-x="840" d="M815 944h-313v-944h-142v944h-313v131h768v-131z" />
<glyph unicode="&#x443;" horiz-adv-x="840" d="M403 -248q-61 -203 -232 -201q-48 0 -83 27v129q42 -19 77 -19q65 0 105 126l54 170l-291 1091h149l226 -813l243 813h152z" />
<glyph unicode="&#x444;" horiz-adv-x="1444" d="M1376 530q0 -219 -74 -374q-96 -203 -292 -203q-88 0 -155 62q-48 44 -69 100v-564h-141v564q-20 -56 -68 -100q-67 -62 -155 -62q-196 0 -293 202q-74 155 -74 375q0 217 75 373q98 203 292 203q166 0 223 -164v551h141v-551q62 164 224 164q195 0 292 -203 q74 -155 74 -373zM1233 530q0 163 -60 285q-68 139 -184 139q-62 0 -121 -34q-62 -37 -82 -93v-571q16 -51 67 -96q63 -56 136 -56q115 0 183 138q61 123 61 288zM645 256v571q-20 56 -82 93q-59 34 -121 34q-116 0 -184 -139q-59 -120 -59 -285q0 -167 60 -288 q68 -138 183 -138q73 0 136 56q52 47 67 96z" />
<glyph unicode="&#x445;" horiz-adv-x="840" d="M29 0l309 551l-291 524h160l213 -379l213 379h158l-299 -522l303 -553h-158l-223 401l-226 -401h-159z" />
<glyph unicode="&#x446;" d="M117 0v1075h141v-944h418v944h141v-944h74v-405h-141v274h-633z" />
<glyph unicode="&#x447;" horiz-adv-x="924" d="M238 1075v-330q0 -206 147 -206q155 0 281 90v446h141v-1075h-141v504q-136 -101 -289 -101q-169 0 -234 117q-47 84 -47 252v303h142z" />
<glyph unicode="&#x448;" horiz-adv-x="1366" d="M117 1075h141v-944h356v944h142v-944h356v944h141v-1075h-1136v1075z" />
<glyph unicode="&#x449;" horiz-adv-x="1366" d="M117 0v1075h141v-944h356v944h142v-944h356v944h141v-944h74v-405h-141v274h-1069z" />
<glyph unicode="&#x44a;" horiz-adv-x="1034" d="M811 334q0 78 -50.5 126t-129.5 48h-213v-375h233q160 0 160 201zM418 633h231q115 0 203 -65q111 -82 111 -230q0 -154 -89 -252q-78 -86 -178 -86h-420v944h-253v131h395v-442z" />
<glyph unicode="&#x44b;" horiz-adv-x="1239" d="M492 133q159 0 159 201q0 79 -50.5 126.5t-129.5 47.5h-213v-375h234zM489 633q115 0 203 -65q111 -82 111 -230q0 -154 -89 -252q-78 -86 -177 -86h-420v1075h141v-442h231zM971 0v1075h141v-1075h-141z" />
<glyph unicode="&#x44c;" horiz-adv-x="870" d="M492 133q159 0 159 201q0 79 -50.5 126.5t-129.5 47.5h-213v-375h234zM489 633q115 0 203 -65q111 -82 111 -230q0 -154 -89 -252q-78 -86 -177 -86h-420v1075h141v-442h231z" />
<glyph unicode="&#x44d;" horiz-adv-x="840" d="M631 621q-13 120 -66 219q-69 129 -172 129q-102 0 -160 -80q-48 -67 -55 -176h-139q5 175 91 279q94 114 265 114q200 0 307 -190q86 -154 86 -371q0 -229 -72 -384q-96 -208 -298 -208q-179 0 -280 121q-93 112 -99 297h135q40 -279 219 -279q121 0 185 147 q47 105 55 250h-336v132h334z" />
<glyph unicode="&#x44e;" horiz-adv-x="1335" d="M473 489h-215v-489h-141v1075h141v-454h217q15 205 100 331q103 154 293 154q216 0 318 -191q80 -149 80 -385t-80 -386q-102 -191 -318 -191q-199 0 -303 177q-81 139 -92 359zM1122 530q0 165 -61 285q-71 139 -193 139q-140 0 -206 -152q-48 -111 -48 -272 q0 -168 61 -288q70 -138 193 -138t193 138q61 120 61 288z" />
<glyph unicode="&#x44f;" horiz-adv-x="909" d="M256 758q0 -67 48.5 -115.5t115.5 -48.5h227v352h-225q-77 0 -123 -57q-43 -52 -43 -131zM94 795q0 139 86 212q81 68 221 68h387v-1075h-141v467h-135l-317 -467h-175l322 469q-248 73 -248 326z" />
<glyph unicode="&#x451;" d="M694 1239h-153v211h153v-211zM403 1239h-155v211h155v-211zM471 977q-216 0 -254 -356h492q0 138 -50 234q-63 122 -188 122zM465 84q110 0 175 99q26 39 60 145h144q-63 -375 -377 -375q-220 0 -321 189q-78 147 -78 388q0 227 90 384q110 192 321 192q210 0 309 -199 q75 -151 75 -384q0 -6 -1 -34h-645v-63q0 -109 56 -211q72 -131 192 -131z" />
<glyph unicode="&#x452;" d="M676 549q0 221 -187 221q-96 0 -165 -81q-66 -77 -66 -175v-514h-141v1098h-113v137h113v258h141v-258h395v-137h-395v-357q112 160 270 160q123 0 205 -83t82 -206v-716q0 -56 -27 -107q-34 -65 -104 -92q-44 -17 -110 -17q-24 0 -48 3v131l82 10q30 4 49 31.5t19 58.5 v635z" />
<glyph unicode="&#x453;" horiz-adv-x="719" d="M444 1212h-102l164 304h188zM676 944h-418v-944h-141v1075h559v-131z" />
<glyph unicode="&#x454;" horiz-adv-x="840" d="M209 621h334v-132h-336q8 -145 54 -249q64 -146 185 -146q180 0 219 277h136q-7 -217 -128 -327q-101 -91 -251 -91q-203 0 -299 207q-72 155 -72 385q0 213 88 370q108 191 305 191q170 0 265 -114q87 -104 92 -279h-140q-6 108 -55 176q-58 80 -160 80t-171 -129 q-54 -100 -66 -219z" />
<glyph unicode="&#x455;" horiz-adv-x="840" d="M414 78q219 0 219 188q0 130 -96 158q-175 51 -293 100q-166 70 -166 269q0 143 92 228t236 85q322 0 327 -332h-139q0 201 -201 201q-70 0 -124 -54t-54 -124q0 -111 104 -156q7 -3 177 -55q128 -39 178 -76q98 -72 98 -225q0 -157 -100 -247q-95 -87 -254 -87 q-361 0 -361 366h133q6 -90 52 -155q60 -84 172 -84z" />
<glyph unicode="&#x456;" horiz-adv-x="373" d="M111 1280v213h141v-213h-141zM111 0v1075h141v-1075h-141z" />
<glyph unicode="&#x457;" horiz-adv-x="467" d="M299 1075v-1075h-141v1075h141zM453 1239h-156v211h156v-211zM160 1239h-154v211h154v-211z" />
<glyph unicode="&#x458;" horiz-adv-x="373" d="M51 -313q66 9 66 90v1298h141v-1311q0 -55 -27 -106q-35 -65 -104 -92q-44 -17 -110 -17q-24 0 -48 2v125zM258 1493v-213h-141v213h141z" />
<glyph unicode="&#x459;" horiz-adv-x="1362" d="M995 125q160 0 160 209q0 78 -50.5 126t-129.5 48h-172v-383h192zM803 633h190q115 0 203 -65q111 -82 111 -230q0 -154 -89 -252q-78 -86 -178 -86h-378v944h-300v-653q0 -120 -45 -211q-57 -115 -165 -115q-67 0 -123 33v117q44 -31 84 -31q108 0 108 227v764h582v-442 z" />
<glyph unicode="&#x45a;" horiz-adv-x="1362" d="M995 145q160 0 160 189q0 153 -180 153h-172v-342h192zM803 633h190q115 0 203 -65q111 -82 111 -230q0 -154 -89 -252q-78 -86 -178 -86h-378v487h-404v-487h-141v1075h141v-442h404v442h141v-442z" />
<glyph unicode="&#x45b;" d="M258 741q112 160 270 160q123 0 205 -83t82 -206v-612h-139v549q0 221 -187 221q-96 0 -165 -81q-66 -77 -66 -175v-514h-141v1098h-113v137h113v258h141v-258h395v-137h-395v-357z" />
<glyph unicode="&#x45c;" d="M444 1212h-102l164 304h188zM238 0h-140v1075h140v-454h63l324 454h159l-356 -495l416 -580h-166l-354 489h-86v-489z" />
<glyph unicode="&#x45e;" horiz-adv-x="840" d="M735 1505q-16 -227 -321 -227t-321 227h179q18 -125 142 -125q126 0 142 125h179zM403 -248q-61 -203 -232 -201q-48 0 -83 27v129q42 -19 77 -19q65 0 105 126l54 170l-291 1091h149l226 -813l243 813h152z" />
<glyph unicode="&#x45f;" d="M117 0v1075h141v-944h418v944h141v-1075h-276v-270h-142v270h-282z" />
<glyph unicode="&#x490;" horiz-adv-x="1001" d="M973 1343h-664v-1343h-157v1493h663v367h158v-517z" />
<glyph unicode="&#x491;" horiz-adv-x="719" d="M676 944h-418v-944h-141v1075h418v295h141v-426z" />
<glyph unicode="&#x2013;" d="M-8 512v129h950v-129h-950z" />
<glyph unicode="&#x2014;" horiz-adv-x="1679" d="M1681 641v-129h-1695v129h1695z" />
<glyph unicode="&#x2018;" horiz-adv-x="373" d="M109 1157q0 158 61 230q26 30 96 63v-84q-82 -42 -82 -171q0 -19 2 -40h78v-215h-155v217z" />
<glyph unicode="&#x2019;" horiz-adv-x="373" d="M266 1239q0 -96 -32 -165q-41 -89 -125 -99v80q79 11 79 167v17h-79v211h157v-211z" />
<glyph unicode="&#x201c;" horiz-adv-x="559" d="M346 1157q0 156 62 230q25 30 94 63v-82q-80 -42 -80 -172q0 -20 2 -41h76v-215h-154v217zM80 1157q0 157 62 230q26 31 96 63v-84q-82 -42 -82 -171q0 -19 2 -40h78v-215h-156v217z" />
<glyph unicode="&#x201d;" horiz-adv-x="559" d="M508 1450v-211q0 -95 -33 -165q-42 -89 -125 -99v80q80 11 80 167v17h-80v211h158zM82 1450h158v-211q0 -96 -32 -165q-42 -89 -126 -99v80q82 12 82 175v9h-82v211z" />
<glyph unicode="&#x201e;" horiz-adv-x="559" d="M504 211v-211q0 -96 -32 -165q-42 -89 -126 -99v80q80 11 80 167v17h-80v211h158zM80 211h158v-211q0 -95 -33 -165q-42 -89 -125 -99v80q80 11 80 167v17h-80v211z" />
<glyph unicode="&#x2020;" d="M387 1454h164v-424h311v-170h-311v-1225h-164v1225h-324v170h324v424z" />
<glyph unicode="&#x2022;" horiz-adv-x="588" d="M84 707q-1 98 56 164q59 71 155 71q95 0 154 -71q55 -67 55 -164t-55 -164q-59 -72 -154 -72q-97 0 -155 71q-55 66 -56 165z" />
<glyph unicode="&#x2026;" horiz-adv-x="1679" d="M1487 213v-213h-174v213h174zM928 213v-213h-176v213h176zM369 213v-213h-176v213h176z" />
<glyph unicode="&#x20ac;" horiz-adv-x="1524" d="M1239 715h-1141l48 110h1139zM1145 495h-1047l48 110h1047zM1364 149q-173 -149 -428 -149q-280 0 -470 190t-190 470t190 470t470 190t476 -196l-48 -111q-183 197 -428 197q-230 0 -390 -160t-160 -390t160 -390t390 -160q250 0 428 201v-162z" />
<glyph unicode="&#x2116;" horiz-adv-x="1845" d="M1620 664q0 91 -29 156q-38 87 -118 87q-146 0 -146 -243q0 -85 31 -153q40 -89 115 -89q77 0 117 88q30 67 30 154zM1741 0h-535v127h535v-127zM1473 1038q145 0 216 -120q58 -98 58 -254q0 -150 -61 -251q-73 -122 -213 -122q-139 0 -212 122q-61 102 -61 251 q0 155 58 253q71 121 215 121zM285 1196v-1196h-158v1493h186l615 -1208v1208h157v-1493h-180z" />
<glyph unicode="&#x2122;" horiz-adv-x="1679" d="M455 1395v-740h-123v740h-226v123h572v-123h-223zM1464 655v740l-245 -740h-66l-238 740v-740h-112v863h180l205 -609l209 609h178v-863h-111z" />
<glyph unicode="&#x221a;" horiz-adv-x="1124" d="M319 1069l404 -825l260 1634l72 -10l-307 -1946l-498 1028l-197 -96l-33 68z" />
<glyph unicode="&#x221e;" horiz-adv-x="1460" d="M1307 534q0 75 -55 131t-130 56q-79 0 -175 -63q-39 -26 -148 -117q102 -99 140 -126q87 -62 175 -62q78 0 135.5 51.5t57.5 129.5zM348 353q88 0 175 62q38 27 141 126q-110 91 -149 117q-96 63 -175 63q-84 0 -138 -65q-46 -56 -46 -122q1 -77 57.5 -129t134.5 -52z M1410 546q0 -116 -79 -203q-82 -88 -197 -88q-121 0 -224 68q-30 19 -179 150q-153 -133 -178 -150q-103 -68 -225 -68q-114 0 -195 88t-81 203q0 116 86 199t203 83q101 0 213 -74q59 -39 177 -146q121 109 177 146q112 74 213 74q117 0 203 -83t86 -199z" />
<glyph unicode="&#x2248;" horiz-adv-x="981" d="M203 851q44 46 103 46q50 0 87 -27l219 -161q31 -23 65 -23q89 0 89 125q0 16 -2 31h88q1 -15 1 -29q0 -92 -43 -172q-52 -97 -136 -97q-59 0 -129 54l-180 139q-30 29 -59 29q-44 0 -70 -55q-20 -43 -20 -93q0 -11 1 -22h-90q4 180 76 255zM203 503q44 46 103 46 q50 0 87 -27l219 -162q31 -23 65 -23q89 0 89 126q0 16 -2 31h88q1 -15 1 -30q0 -91 -43 -172q-52 -96 -136 -96q-59 0 -129 54l-180 139q-30 29 -59 29q-44 0 -70 -55q-20 -43 -20 -93q0 -11 1 -22h-90q4 180 76 255z" />
<glyph unicode="&#x2260;" horiz-adv-x="981" d="M897 604h-273l-128 -231h401v-117h-466l-171 -307l-100 57l139 250h-215v117h279l129 231h-408v117h473l156 280l100 -57l-124 -223h208v-117z" />
<glyph unicode="&#x2264;" horiz-adv-x="981" d="M897 133v-133h-821v133h821zM233 700l664 -331v-164l-821 424v143l821 424v-164z" />
<glyph unicode="&#x2265;" horiz-adv-x="981" d="M897 629l-821 -424v164l663 331l-663 332v164l821 -424v-143zM897 0h-821v133h821v-133z" />
<glyph unicode="&#x25fc;" horiz-adv-x="1075" d="M0 1075h1075v-1075h-1075v1075z" />
<glyph horiz-adv-x="1120" d="M684 150q115 0 168 107q39 79 39 196q0 126 -86 191q-78 58 -207 58h-307v-552h393zM735 0h-602v1493h850v-152h-692v-489h323q205 0 319 -113t114 -319q0 -192 -121 -318q-98 -102 -191 -102z" />
<glyph horiz-adv-x="1120" d="M684 150q106 0 163 99q45 78 46 185q2 268 -295 268h-307v-552h393zM614 852q222 0 222 248q0 109 -64.5 176t-173.5 67h-307v-491h323zM133 1493h481q176 0 277.5 -100t101.5 -275q0 -244 -157 -327q23 -13 69 -42q57 -38 94 -105q48 -87 48 -208q0 -202 -112 -329 q-94 -107 -200 -107h-602v1493z" />
<glyph horiz-adv-x="1001" d="M152 0v1493h821v-150h-664v-1343h-157z" />
<glyph horiz-adv-x="1247" d="M944 1343h-422q0 -263 -58 -633q-61 -389 -136 -560h616v1193zM1204 -346h-157v346h-830v-346h-158v496h103q100 230 158 660q49 362 49 683h733v-1343h102v-496z" />
<glyph horiz-adv-x="1120" d="M1001 1493v-150h-692v-491h666v-150h-666v-552h721v-150h-878v1493h849z" />
<glyph horiz-adv-x="1827" d="M1800 0h-205l-495 702h-113v-702h-158v702h-112l-496 -702h-205l564 786l-537 707h190l482 -641h114v641h158v-641h115l481 641h191l-537 -707z" />
<glyph horiz-adv-x="1096" d="M553 102q142 0 223 96q76 89 76 234q0 277 -293 277q-22 0 -72 -4v147q166 3 235 48q89 58 89 216q0 120 -68.5 189t-187.5 69q-123 0 -208 -113q-79 -104 -79 -231l-147 2q0 212 115 348q121 144 329 144q192 0 303 -122q107 -117 107 -312q0 -177 -152 -304 q108 -58 152 -151q37 -80 37 -213q0 -193 -122 -330q-126 -141 -317 -141q-221 0 -354 157q-115 135 -127 334h150q14 -137 92 -233q88 -107 219 -107z" />
<glyph horiz-adv-x="1212" d="M297 0h-158v1493h158v-1194l627 1194h157v-1493h-157v1194z" />
<glyph horiz-adv-x="1212" d="M939 1855q-15 -227 -321 -227q-304 0 -320 227h179q18 -124 141 -124q126 0 143 124h178zM1081 0h-157v1194l-627 -1194h-158v1493h158v-1194l627 1194h157v-1493z" />
<glyph horiz-adv-x="1120" d="M291 0h-158v1493h158v-641h94l514 641l186 -1l-569 -706l596 -786h-201l-528 702h-92v-702z" />
<glyph horiz-adv-x="1227" d="M451 1343v-860q0 -516 -279 -516q-91 0 -141 45v138q61 -41 114 -41q75 0 103 65q45 103 45 430v889h803v-1493h-158v1343h-487z" />
<glyph horiz-adv-x="1399" d="M287 1212v-1212h-162v1493h225l352 -1270l353 1270h223v-1493h-162v1212l-334 -1212h-161z" />
<glyph horiz-adv-x="1212" d="M297 702v-702h-158v1493h158v-641h627v641h157v-1493h-157v702h-627z" />
<glyph horiz-adv-x="1212" d="M297 1343v-1343h-158v1493h942v-1493h-157v1343h-627z" />
<glyph horiz-adv-x="1120" d="M713 782q39 0 92 62q72 84 72 217q0 139 -82 220q-63 62 -131 62h-353v-561h402zM666 1493q155 0 249 -84q121 -108 121 -346q0 -212 -115 -333q-93 -97 -206 -97h-404v-633h-157v1493h512z" />
<glyph horiz-adv-x="1212" d="M623 1366q-203 0 -305 -227q-76 -170 -76 -404t76 -404q101 -227 305 -227q153 0 249 151q73 114 103 292h162q-39 -278 -181 -441q-49 -57 -133 -100q-103 -53 -209 -53q-272 0 -417 271q-117 218 -117 511q0 301 117 517q144 266 417 266q104 0 209 -54 q84 -43 133 -100q104 -120 158 -332h-164q-104 334 -327 334z" />
<glyph horiz-adv-x="1026" d="M35 1343v150h960v-150h-399v-1343h-158v1343h-403z" />
<glyph horiz-adv-x="1440" d="M307 221q-244 182 -244 514t244 514q157 117 338 117v127h158v-127q182 0 338 -117q243 -182 243 -514t-243 -514q-156 -117 -338 -117v-104h-158v104q-181 0 -338 117zM645 1241q-181 0 -306 -166q-116 -154 -116 -340t116 -340q125 -166 306 -166v1012zM1225 735 q0 186 -116 340q-125 166 -306 166v-1012q181 0 306 166q116 154 116 340z" />
<glyph horiz-adv-x="1120" d="M1090 0h-195l-326 608l-338 -608h-194l430 766l-399 727h190l311 -571l312 571h192l-409 -727z" />
<glyph horiz-adv-x="1212" d="M139 0v1493h158v-1343h627v1343h157v-1343h97v-496h-158v346h-881z" />
<glyph horiz-adv-x="1171" d="M582 729q167 0 301 41v723h157v-1493h-157v621q-134 -41 -303 -41q-282 0 -377 164q-64 110 -64 374v375h158v-449q0 -315 285 -315z" />
<glyph horiz-adv-x="1802" d="M977 150h524v1343h158v-1493h-1520v1493h158v-1343h524v1343h156v-1343z" />
<glyph horiz-adv-x="1802" d="M139 0v1493h158v-1343h524v1343h156v-1343h524v1343h158v-1343h86v-496h-158v346h-1448z" />
<glyph horiz-adv-x="1503" d="M668 150q115 0 168 106q38 76 38 195q0 251 -292 251h-291v-552h377zM291 852h307q432 0 432 -408q0 -230 -120 -353q-89 -91 -191 -91h-586v1493h158v-641zM1370 1493v-1493h-158v1493h158z" />
<glyph horiz-adv-x="1462" d="M975 110q129 0 173 126q26 74 26 233v45q0 114 -66 200q-85 111 -246 111h-266v-825h-158v1343h-403v150h960v-150h-399v-374h266q245 0 372 -161q97 -123 97 -282v-174q0 -72 -33 -165q-85 -239 -309 -239q-102 0 -194 54l92 133q37 -25 88 -25z" />
<glyph horiz-adv-x="1001" d="M623 1583h-103l164 303h188zM152 0v1493h821v-150h-664v-1343h-157z" />
<glyph horiz-adv-x="840" d="M186 307q0 -82 46 -140q50 -63 130 -63q125 0 169 127q26 75 26 232v1030h158v-1141q0 -158 -84 -272q-94 -127 -252 -127q-198 0 -289 143q-61 96 -61 221v158h157v-168z" />
<glyph horiz-adv-x="467" d="M469 1647h-156v211h156v-211zM176 1647h-153v211h153v-211zM326 1493v-1493h-158v1493h158z" />
<glyph horiz-adv-x="1796" d="M1370 150q112 0 165 100q42 79 42 201q0 251 -293 251h-229v-552h315zM1055 852h245q433 0 433 -408q0 -230 -121 -353q-89 -91 -191 -91h-524v1343h-446v-880q0 -496 -279 -496q-91 0 -141 45v138q61 -41 114 -41q73 0 103 81q45 120 45 476v827h762v-641z" />
<glyph horiz-adv-x="1796" d="M1370 170q207 0 207 281q0 231 -293 231h-229v-512h315zM1055 852h245q433 0 433 -408q0 -230 -121 -353q-89 -91 -191 -91h-524v682h-600v-682h-158v1493h158v-641h600v641h158v-641z" />
<glyph horiz-adv-x="1120" d="M537 1368q-114 0 -190.5 -73.5t-76.5 -186.5q0 -167 217 -236l316 -100q112 -35 176 -132q63 -93 63 -212q0 -213 -128 -344t-341 -131q-240 0 -369 142q-124 137 -124 378h147q0 -143 62 -237q86 -130 276 -130q140 0 226 74q90 79 90 217q0 160 -140 213 q-99 33 -338 113q-150 51 -217 138.5t-67 242.5q0 192 111.5 303t304.5 111q192 0 296 -78q173 -130 173 -360v-23h-154v21q0 136 -90 215q-86 75 -223 75z" />
<glyph horiz-adv-x="1462" d="M438 0v1343h-403v150h960v-150h-399v-374h266q245 0 372 -161q97 -123 97 -282v-526h-157v514q0 114 -66 200q-85 111 -246 111h-266v-825h-158z" />
<glyph horiz-adv-x="1120" d="M623 1583h-103l164 303h188zM291 0h-158v1493h158v-641h94l514 641l186 -1l-569 -706l596 -786h-201l-528 702h-92v-702z" />
<glyph horiz-adv-x="1212" d="M123 0v1493h158v-1343h626v1343h158v-1493h-387v-375h-158v375h-397z" />
<glyph horiz-adv-x="1120" d="M813 1647h-156v211h156v-211zM520 1647h-153v211h153v-211zM1001 1493v-150h-692v-491h666v-150h-666v-552h721v-150h-878v1493h849z" />
</font>
</defs>
</svg>
