<?xml version="1.0" standalone="no"?>
<!DOCTYPE svg PUBLIC "-//W3C//DTD SVG 1.1//EN" "http://www.w3.org/Graphics/SVG/1.1/DTD/svg11.dtd" >
<svg>
<metadata>
Created by FontForge 20090914 at Tue Mar 18 04:56:57 2014
 By www-data
(c) Copyright 1995-1997 International Typeface Corporation  All rights reserved.
</metadata>
<defs>
<font id="BlairMdITCTTMedium" horiz-adv-x="500" >
  <font-face 
    font-family="BlairMdITC TT"
    font-weight="500"
    font-stretch="normal"
    units-per-em="1000"
    panose-1="0 0 5 0 0 0 0 0 0 0"
    ascent="800"
    descent="-200"
    x-height="615"
    cap-height="724"
    bbox="-245 -236 1538 964"
    underline-thickness="109"
    underline-position="-48"
    unicode-range="U+0020-U+F002"
  />
<missing-glyph 
d="M63 0v771h375v-771h-375zM125 63h250v646h-250v-646z" />
    <glyph glyph-name=".notdef" 
d="M63 0v771h375v-771h-375zM125 63h250v646h-250v-646z" />
    <glyph glyph-name="space" unicode=" " horiz-adv-x="300" 
 />
    <glyph glyph-name="exclam" unicode="!" horiz-adv-x="357" 
d="M249 669l-28 -478h-96l-28 533h152v-55zM251 0h-155v109h155v-109z" />
    <glyph glyph-name="quotedbl" unicode="&#x22;" horiz-adv-x="300" 
d="M112 701v-271h-68v271h68zM256 701v-271h-68v271h68z" />
    <glyph glyph-name="numbersign" unicode="#" horiz-adv-x="762" 
d="M682 502h-121l-18 -115h105v-93h-121l-29 -178h-100l30 178h-149l-30 -178h-100l29 178h-103v93h120l18 115h-105v93h121l21 129h100l-20 -129h148l21 129h100l-21 -129h104v-93zM462 502h-149l-19 -115h149z" />
    <glyph glyph-name="dollar" unicode="$" horiz-adv-x="949" 
d="M517 435c230.667 -12 346.001 -82 346.001 -210c0 -145.333 -115.333 -224 -346 -236v-55h-120v57c-147.333 12 -262.333 51.333 -345 118l65 87c84.667 -54 178 -86.667 280 -98v233c-213.333 6 -320 67.667 -320 185c0 62.667 27.333 112.667 82 150s134 59.333 238 66
v41h120v-43c134 -18.667 235 -53 303 -103l-73 -80c-70.667 37.333 -147.334 62 -230.001 74v-186zM397.001 443v182.999c-129.333 -5.33301 -194 -36.666 -194 -93.999c0 -53.333 64.667 -83 194 -89zM517.001 93.999c144 9.33301 216 50.333 216 123
c0 68 -72 104 -216 108v-231z" />
    <glyph glyph-name="percent" unicode="%" horiz-adv-x="1144" 
d="M1068 183c0 -54.667 -19.833 -101.167 -59.5 -139.5s-86.834 -57.5 -141.501 -57.5c-55.333 0 -103 19.333 -143 58s-60 85 -60 139s20 100.333 60 139s87.667 58 143 58c54.667 0 101.834 -19.167 141.501 -57.5s59.5 -84.833 59.5 -139.5zM964 724l-647 -734h-137
l648 734h136zM480 542c0 -54 -19.833 -100.167 -59.5 -138.5s-87.167 -57.5 -142.5 -57.5c-56 0 -103.667 19 -143 57s-59 84.333 -59 139s19.833 101.167 59.5 139.5s87.167 57.5 142.5 57.5c56 0 103.667 -19.333 143 -58s59 -85 59 -139zM961 183
c0 27.333 -9 50.333 -27 69s-40.333 28 -67 28c-27.333 0 -50.333 -9.33301 -69 -28s-28 -41.667 -28 -69c0 -26.667 9.5 -49.5 28.5 -68.5s41.833 -28.5 68.5 -28.5s49 9.33301 67 28s27 41.667 27 69zM373 542c0 27.333 -9.16895 50.333 -27.502 69s-40.833 28 -67.5 28
c-27.333 0 -50.166 -9.33301 -68.499 -28s-27.5 -41.667 -27.5 -69s9.33301 -50.333 28 -69s41.334 -28 68.001 -28s49.167 9.33301 67.5 28s27.5 41.667 27.5 69z" />
    <glyph glyph-name="ampersand" unicode="&#x26;" horiz-adv-x="942" 
d="M881 -3c-93.333 4.66699 -181 28.667 -263 72c-80 -54.667 -175 -82 -285 -82c-86.667 0 -157 20.667 -211 62s-81 93 -81 155c0 105.333 84 178 252 218c-24.667 39.333 -37 79.333 -37 120s13 77.667 39 111c43.333 56 102 84 176 84c58 0 105.167 -16.833 141.5 -50.5
s54.5 -77.5 54.5 -131.5c0 -95.333 -62.667 -161.333 -188 -198c44 -56 92.333 -106.333 145 -151c40.667 32 75.334 89.333 104.001 172h123c-26.667 -87.333 -73.334 -165.333 -140.001 -234c54 -24 110.667 -36 170 -36v-111zM411 444
c92.667 11.333 138.999 49.332 138.999 113.999c0 21.333 -7.83301 39.5 -23.5 54.5s-35.5 22.5 -59.5 22.5c-27.333 0 -49.666 -8.66699 -66.999 -26s-26 -39.666 -26 -66.999s12.333 -60 37 -98zM532.999 140.999c-62 56 -119.334 119 -172.001 189
c-132.667 -20.667 -199 -64 -199 -130c0 -32 16.333 -58.167 49 -78.5s77.334 -30.5 134.001 -30.5c55.333 0 118 16.667 188 50z" />
    <glyph glyph-name="quotesingle" unicode="'" horiz-adv-x="155" 
d="M112 701v-271h-68v271h68z" />
    <glyph glyph-name="parenleft" unicode="(" horiz-adv-x="432" 
d="M373 -141c-94.667 10 -166.001 53.667 -214.001 131c-58 92.667 -87 204 -87 334c0 130.667 29 242.667 87 336c48.667 78.667 120 123 214 133v-56h-2c-51.333 0 -93.666 -36.333 -126.999 -109c-35.333 -76 -53 -177.333 -53 -304c0 -128 16.667 -228.167 50 -300.5
s77 -108.5 131 -108.5h1v-56z" />
    <glyph glyph-name="parenright" unicode=")" horiz-adv-x="436" 
d="M58 793c94 -10 164.999 -54.333 212.999 -133c58.667 -95.333 88 -207.333 88 -336c0 -130 -29 -241.667 -87 -335c-47.333 -76 -118.666 -119.333 -213.999 -130v56h1c53.333 0 96.666 35.667 129.999 107c34 74 51 174.667 51 302c0 126 -17.667 227.333 -53 304
c-33.333 72.667 -75.666 109 -126.999 109h-2v56z" />
    <glyph glyph-name="asterisk" unicode="*" horiz-adv-x="576" 
d="M514 519l-170 -33l110 -134l-81 -58l-90 152l-89 -152l-81 58l110 134l-170 33l31 95l159 -61l-19 171h119l-19 -171l159 61z" />
    <glyph glyph-name="plus" unicode="+" horiz-adv-x="391" 
d="M267 0h-120v494l-98 -41v105c37.333 13.333 70.333 32.333 99 57h119v-615z" />
    <glyph glyph-name="comma" unicode="," horiz-adv-x="355" 
d="M255 -28c0 -72.667 -41.667 -109 -125 -109h-23v59c50 0.666992 75 14.667 75 42v36h-82v109h155v-137z" />
    <glyph glyph-name="hyphen" unicode="-" horiz-adv-x="531" 
d="M471 265h-411v109h411v-109z" />
    <glyph glyph-name="hyphen" unicode="&#x2010;" horiz-adv-x="531" 
d="M471 265h-411v109h411v-109z" />
    <glyph glyph-name="period" unicode="." horiz-adv-x="355" 
d="M255 0h-155v109h155v-109z" />
    <glyph glyph-name="slash" unicode="/" horiz-adv-x="542" 
d="M571 724l-463 -734h-137l464 734h136z" />
    <glyph glyph-name="zero" unicode="0" horiz-adv-x="932" 
d="M846 362c0 -102.667 -37.333 -190.333 -112 -263s-164 -109 -268 -109c-104.667 0 -193.667 36 -267 108c-75.333 74 -113 162 -113 264c0 101.333 38 189 114 263c73.333 71.333 162 107 266 107c105.333 0 194.333 -35.667 267 -107c75.333 -74 113 -161.667 113 -263z
M725 362.001c0 77.333 -24.167 140.5 -72.5 189.5s-110.5 73.5 -186.5 73.5s-138.167 -24.5 -186.5 -73.5s-72.5 -112.167 -72.5 -189.5c0 -76.667 24.333 -139.667 73 -189s110.667 -74 186 -74s137.333 24.667 186 74s73 112.333 73 189z" />
    <glyph glyph-name="one" unicode="1" horiz-adv-x="383" 
d="M264 0h-120v604l-116 -50v104c44 14 83 36 117 66h119v-724z" />
    <glyph glyph-name="two" unicode="2" horiz-adv-x="838" 
d="M766 0l-735.001 -0.000976562c8 179.333 108.333 299 301 359c4 1.33301 47.667 13.333 131 36c46 12.667 80.333 25.334 103 38.001c34.667 19.333 52 45.333 52 78c0 34 -17.167 61.5 -51.5 82.5s-82.166 31.5 -143.499 31.5c-104 0 -198.333 -33.667 -283 -101l-76 80
c110.667 86 231 129 361 129c95.333 0 173 -21.667 233 -65s90 -98.333 90 -165c0 -95.333 -63.667 -161 -191 -197c-47.333 -10.667 -117 -29 -209 -55c-86.667 -30 -145 -77.333 -175 -142h593v-109z" />
    <glyph glyph-name="three" unicode="3" horiz-adv-x="861" 
d="M624 381c98 -32.667 147 -92 147 -178c0 -66.667 -32.667 -118.667 -98 -156c-67.333 -38.667 -162.333 -58 -285 -58c-80.667 0 -150 11.333 -208 34c-60.667 23.333 -115.667 61 -165 113l80 80c86.667 -78.667 188.667 -118 306 -118c162 0 243 40.333 243 121
c0 72 -96 108 -288 108c-24.667 0 -43.667 -0.333008 -57 -1v98h110c134.667 0 202 35.667 202 107c0 62.667 -65.667 94 -197 94c-100 0 -192.333 -27 -277 -81l-69 74c110.667 76.667 225.667 115 345 115c101.333 0 180.333 -17.833 237 -53.5s85 -83.5 85 -143.5
c0 -70 -37 -121.667 -111 -155z" />
    <glyph glyph-name="four" unicode="4" horiz-adv-x="811" 
d="M788 142h-166v-142h-120v142h-477v109l479 473h118v-473h166v-109zM502 251v346l-349 -346h349z" />
    <glyph glyph-name="five" unicode="5" horiz-adv-x="884" 
d="M182 416c83.333 34 166.334 51 249.001 51c112 0 201 -22 267 -66c64 -42.667 96 -98.667 96 -168c0 -72 -32 -130.667 -96 -176s-149.333 -68 -256 -68c-172 0 -306 49 -402 147l94 64c76.667 -70.667 178.667 -106 306 -106c71.333 0 127.666 12.833 168.999 38.5
s62 59.167 62 100.5c0 40 -21.833 72.167 -65.5 96.5s-105.167 36.5 -184.5 36.5c-90.667 0 -178 -21.667 -262 -65l-102 56l113 367h570v-109h-489z" />
    <glyph glyph-name="six" unicode="6" horiz-adv-x="914" 
d="M200 330c95.333 83.333 193.669 125.001 295.002 125.001c99.333 0 180.166 -21.667 242.499 -65s93.5 -98.333 93.5 -165c0 -72.667 -29.833 -130.334 -89.5 -173.001s-143.167 -64 -250.5 -64c-131.333 0 -233.5 32.833 -306.5 98.5s-109.5 156.167 -109.5 271.5
c0 82.667 23 155 69 217c79.333 106.667 192 160 338 160c133.333 0 239.333 -44 318 -132l-88 -70c-54.667 62 -131.334 93 -230.001 93c-60 0 -112.667 -13.667 -158 -41c-86 -52 -129 -122 -129 -210c0 -12 1.66699 -27 5 -45zM227.003 220.001
c43.333 -80.667 130.333 -121 261 -121c67.333 0 120.833 11.5 160.5 34.5s59.5 52.5 59.5 88.5c0 38 -20 69.5 -60 94.5s-92.333 37.5 -157 37.5c-110.667 0 -198.667 -44.667 -264 -134z" />
    <glyph glyph-name="seven" unicode="7" horiz-adv-x="765" 
d="M741 615l-472 -615h-138l471 615h-587v109h726v-109z" />
    <glyph glyph-name="eight" unicode="8" horiz-adv-x="893" 
d="M655 380c57.333 -16 101.333 -39.667 132 -71s46 -67 46 -107c0 -66.667 -33.333 -119 -100 -157s-162 -57 -286 -57s-219.5 19 -286.5 57s-100.5 90.333 -100.5 157c0 40 15.333 75.667 46 107s74.667 55 132 71c-85.333 28 -128 78 -128 150
c0 62.667 29.167 112 87.5 148s140.833 54 247.5 54c107.333 0 190.5 -18 249.5 -54s88.5 -85.333 88.5 -148c0 -72 -42.667 -122 -128 -150zM663 529c0 64 -72 96 -216 96c-144.667 0 -217 -32 -217 -96c0 -32.667 18.667 -58.334 56 -77.001s91 -28 161 -28
s123.5 9.33301 160.5 28s55.5 44.334 55.5 77.001zM708 212c0 76.667 -87 115 -261 115c-174.667 0 -262 -38.333 -262 -115c0 -76 87.333 -114 262 -114c174 0 261 38 261 114z" />
    <glyph glyph-name="nine" unicode="9" horiz-adv-x="890" 
d="M669 396c-74 -85.333 -175.001 -127.999 -303.001 -127.999c-100.667 0 -180.5 20.333 -239.5 61s-88.5 95 -88.5 163c0 73.333 30.833 131.833 92.5 175.5s146.5 65.5 254.5 65.5c126 0 226.667 -34.333 302 -103s113 -160 113 -274
c0 -108.667 -40 -198.334 -120 -269.001c-75.333 -66.667 -169 -100 -281 -100c-133.333 0 -241.666 41 -324.999 123l81 78c51.333 -60.667 130 -91 236 -91c42.667 0 83 7.33301 121 22c49.333 19.333 88.833 50.5 118.5 93.5s44.5 90.833 44.5 143.5
c0 16 -2 29.333 -6 40zM641.999 508.001c-48.667 79.333 -137.666 119 -266.999 119c-66.667 0 -119.167 -11.5 -157.5 -34.5s-57.5 -53.167 -57.5 -90.5c0 -39.333 18.667 -70.833 56 -94.5s89 -35.5 155 -35.5c117.333 0 207.666 45.333 270.999 136z" />
    <glyph glyph-name="colon" unicode=":" horiz-adv-x="355" 
d="M255 364h-155v109h155v-109zM255 0h-155v109h155v-109z" />
    <glyph glyph-name="semicolon" unicode=";" horiz-adv-x="360" 
d="M255 364h-155v109h155v-109zM255 -28c0 -72.667 -41.667 -109 -125 -109h-23v59c50 0.666992 75 14.667 75 42v36h-82v109h155v-137z" />
    <glyph glyph-name="less" unicode="&#x3c;" horiz-adv-x="776" 
d="M700 0l-642.999 0.00195312c6.66699 108.667 47 190.334 121 245.001c30 22 65 40.333 105 55c14.667 5.33301 48.667 15.666 102 30.999c67.333 19.333 109.666 33 126.999 41c29.333 14 44 32.667 44 56c0 57.333 -52.333 86 -157 86c-88 0 -168 -28.333 -240 -85
l-78 80c101.333 76 208 114 320 114c86 0 155.333 -18.333 208 -55c50.667 -36 76 -82.667 76 -140c0 -50.667 -17 -90.334 -51 -119.001c-30 -24.667 -81.667 -46.334 -155 -65.001c-92.667 -23.333 -149 -39 -169 -47c-50 -20 -86.333 -49.333 -109 -88h499v-109z" />
    <glyph glyph-name="equal" unicode="=" horiz-adv-x="780" 
d="M584 325c72.667 -36.667 109.002 -85.334 109.002 -146.001c0 -59.333 -28.333 -105.333 -85 -138c-58.667 -33.333 -142.334 -50 -251.001 -50c-134.667 0 -245.334 43.667 -332.001 131l76 75c76 -64.667 162 -97 258 -97c62.667 0 113 9 151 27
c36 16.667 54 38.334 54 65.001c0 51.333 -78 77 -234 77c-25.333 0 -45 -0.333008 -59 -1v100c14 -0.666992 34 -1 60 -1c136.667 0 205 26.667 205 80c0 44.667 -53 67 -159 67c-86.667 0 -165 -23.333 -235 -70l-73 76c101.333 68.667 204.333 103 309 103
c89.333 0 159 -15.5 209 -46.5s75 -72.833 75 -125.5c0 -49.333 -26 -91.333 -78 -126z" />
    <glyph glyph-name="greater" unicode="&#x3e;" horiz-adv-x="748" 
d="M702 116h-141v-116h-120v116h-414v108l414 391h120v-390h141v-109zM441 225v268l-285 -268h285z" />
    <glyph glyph-name="question" unicode="?" horiz-adv-x="727" 
d="M22 590c90 92.667 200.667 139 332 139c102 0 182 -19.333 240 -58s87 -90.667 87 -156c0 -48 -11.833 -85 -35.5 -111s-62.5 -46.667 -116.5 -62c-33.333 -8 -78.333 -21.667 -135 -41c-40 -19.333 -61.333 -56 -64 -110h-97c-0.666992 5.33301 -1 13.333 -1 24
c0 50 12.667 90 38 120s66 55 122 75c69.333 24.667 108 39 116 43c29.333 16 44 38 44 66c0 69.333 -66 104 -198 104c-106 0 -189 -32.667 -249 -98zM361 0h-155v109h155v-109z" />
    <glyph glyph-name="at" unicode="@" horiz-adv-x="830" 
d="M403 -19c-100 0 -181.67 31.334 -245.003 94.001s-95 142.334 -95 239.001c0 52.667 10.333 101.667 31 147c28.667 63.333 74 114 136 152s131 57 207 57c66 0 127.333 -16.333 184 -49c46 -26.667 82 -62.5 108 -107.5s39 -93.833 39 -146.5
c0 -68.667 -21.833 -125.834 -65.5 -171.501s-98.167 -68.5 -163.5 -68.5c-51.333 0 -82.666 16.667 -93.999 50c-30 -20 -59.667 -30 -89 -30c-36 0 -64.833 12.167 -86.5 36.5s-32.5 56.5 -32.5 96.5c0 74 27 135.333 81 184c32 28.667 69.333 43 112 43
c22.667 0 44.334 -6 65.001 -18l8 14h82c-48.667 -154.667 -73 -245.334 -73 -272.001c0 -30 15 -45 45 -45c38 0 68 15.833 90 47.5s33 75.167 33 130.5c0 71.333 -22.167 128.5 -66.5 171.5s-103.166 64.5 -176.499 64.5c-85.333 0 -154 -25.667 -206 -77
s-78 -119 -78 -203c0 -180 94 -270 282 -270h6v-69h-38zM469.997 384.001c0 42.667 -15 63.999 -45 63.999c-27.333 0 -52 -17.667 -74 -53s-33 -78.333 -33 -129c0 -37.333 15 -56 45 -56c28 0 52.833 16.833 74.5 50.5s32.5 74.834 32.5 123.501z" />
    <glyph glyph-name="A" unicode="A" horiz-adv-x="947" 
d="M932 0h-131l-84 162h-487l-84 -162h-131l383 724h151zM658 271l-184 350l-185 -350h369z" />
    <glyph glyph-name="B" unicode="B" horiz-adv-x="1057" 
d="M848 373c82.667 -28 124 -89 124 -183c0 -126.667 -91.333 -190 -274 -190h-577v724h585c73.333 0 131 -18 173 -54s63 -84 63 -144c0 -66 -31.333 -117 -94 -153zM708 421c33.333 0 61.167 9.50098 83.5 28.501s33.5 42.167 33.5 69.5c0 29.333 -10 52.666 -30 69.999
s-47.333 26 -82 26h-472v-194h467zM699.001 109.001c100 0 150 32.667 150 98c0 70 -43.667 105 -131 105h-477v-203h458z" />
    <glyph glyph-name="C" unicode="C" horiz-adv-x="1046" 
d="M966 559l-109 -39.001c-73.333 78 -176 117 -308 117c-100 0 -181.5 -25.667 -244.5 -77s-94.5 -116.666 -94.5 -195.999c0 -82 31.167 -148.167 93.5 -198.5s146.5 -75.5 252.5 -75.5c128 0 228.667 39.667 302 119l103 -57c-52 -60.667 -110.833 -104.5 -176.5 -131.5
s-144.167 -40.5 -235.5 -40.5c-128 0 -234.333 32 -319 96c-96.667 73.333 -145 169.333 -145 288c0 116.667 49 212 147 286c85.333 64.667 191 97 317 97c181.333 0 320.333 -62.667 417 -188z" />
    <glyph glyph-name="D" unicode="D" horiz-adv-x="1065" 
d="M579 724c126 0 225.833 -33.5 299.5 -100.5s110.5 -156.833 110.5 -269.5c0 -103.333 -39 -189.333 -117 -258c-72.667 -64 -162.667 -96 -270 -96h-481v724h458zM612 109c72 0 131.168 23.168 177.501 69.501s69.5 105.833 69.5 178.5
c0 77.333 -24.833 139.666 -74.5 186.999s-114.834 71 -195.501 71h-348v-506h371z" />
    <glyph glyph-name="E" unicode="E" horiz-adv-x="939" 
d="M879 0h-758v724h730v-109h-610v-185h424v-109h-424v-212h638v-109z" />
    <glyph glyph-name="F" unicode="F" horiz-adv-x="871" 
d="M851 615h-610v-185h424v-109h-424v-321h-120v724h730v-109z" />
    <glyph glyph-name="G" unicode="G" horiz-adv-x="1092" 
d="M1009 374c0 -118 -42.1689 -213.332 -126.502 -285.999s-196.166 -109 -335.499 -109c-127.333 0 -233.666 32.333 -318.999 97c-96.667 73.333 -145 169 -145 287c0 116 49 211.333 147 286c86 65.333 195 98 327 98c159.333 0 290 -58.333 392 -175l-112 -56
c-75.333 80.667 -172 121 -290 121c-92 0 -169 -22.667 -231 -68c-72 -52.667 -108 -121.334 -108 -206.001c0 -81.333 31 -147.333 93 -198s144 -76 246 -76c160 0 264 62.333 312 187h-337v109h487v-11z" />
    <glyph glyph-name="H" unicode="H" horiz-adv-x="1062" 
d="M941 0h-120v321h-580v-321h-120v724h120v-294h580v294h120v-724z" />
    <glyph glyph-name="I" unicode="I" horiz-adv-x="362" 
d="M241 0h-120v724h120v-724z" />
    <glyph glyph-name="J" unicode="J" horiz-adv-x="788" 
d="M680 232c0 -82 -27.832 -144.832 -83.499 -188.499s-137.167 -65.5 -244.5 -65.5c-97.333 0 -172.5 21.333 -225.5 64s-81.5 104.667 -85.5 186h122c5.33301 -50.667 23.333 -86.834 54 -108.501s78 -32.5 142 -32.5c71.333 0 122.666 11 153.999 33s47 59.333 47 112
v492h120v-492z" />
    <glyph glyph-name="K" unicode="K" horiz-adv-x="961" 
d="M961 0h-154l-348 381l-218 -161v-220h-120v724h120v-375l507 375h173l-370 -274z" />
    <glyph glyph-name="L" unicode="L" horiz-adv-x="820" 
d="M800 0h-679v724h120v-615h559v-109z" />
    <glyph glyph-name="M" unicode="M" horiz-adv-x="1237" 
d="M1116 0h-120v592h-3l-376 -472l-373 472h-3v-592h-120v724h149l348 -438l349 438h149v-724z" />
    <glyph glyph-name="N" unicode="N" horiz-adv-x="1064" 
d="M943 0h-148l-554 594v-594h-120v724h149l553 -594v594h120v-724z" />
    <glyph glyph-name="O" unicode="O" horiz-adv-x="1096" 
d="M1013 363c0 -118.667 -48.667 -214.667 -146 -288c-85.333 -64 -191.333 -96 -318 -96c-128 0 -234.667 32.333 -320 97c-97.333 73.333 -146 169 -146 287c0 116 49.333 211.333 148 286c86.667 65.333 192.667 98 318 98c126 0 231.667 -32.667 317 -98
c98 -74.667 147 -170 147 -286zM888 363c0 84.667 -36.001 153.333 -108.001 206c-62 45.333 -139 68 -231 68c-100.667 0 -182.667 -25.833 -246 -77.5s-95 -117.167 -95 -196.5c0 -82 31 -148.167 93 -198.5s144.667 -75.5 248 -75.5c102.667 0 184.834 25.333 246.501 76
s92.5 116.667 92.5 198z" />
    <glyph glyph-name="P" unicode="P" horiz-adv-x="953" 
d="M695 724c74 0 132.667 -20.5 176 -61.5s65 -95.833 65 -164.5c0 -72 -22.5 -127 -67.5 -165s-110.5 -57 -196.5 -57h-431v-276h-120v724h574zM674 385c92.667 0 139 37 139 111c0 79.333 -49 119 -147 119h-425v-230h433z" />
    <glyph glyph-name="Q" unicode="Q" horiz-adv-x="1096" 
d="M681 -5c-44.667 -10 -88.667 -14.999 -132 -14.999c-126.667 0 -233 32.333 -319 97c-98 74 -147 169.667 -147 287c0 116 49.333 211.333 148 286c86.667 65.333 192.667 98 318 98s231 -32.667 317 -98c98 -74 147 -169.333 147 -286
c0 -148.667 -73.667 -259.334 -221 -332.001l90 -99l-112 -36zM712 120.001c117.333 47.333 176.001 128.667 176.001 244c0 84.667 -36.333 153.667 -109 207c-62 45.333 -138.667 68 -230 68c-92 0 -169.333 -22.667 -232 -68c-72.667 -52.667 -109 -121.667 -109 -207
c0 -81.333 31.167 -147.333 93.5 -198s144.833 -76 247.5 -76c7.33301 0 21.666 0.666992 42.999 2l-78 87l114 34z" />
    <glyph glyph-name="R" unicode="R" horiz-adv-x="1008" 
d="M942 0l-139 -0.000976562l-196 276h-366v-276h-120v724h571c76 0 135.667 -20.5 179 -61.5s65 -96.5 65 -166.5c0 -61.333 -17.667 -110.666 -53 -147.999c-32.667 -34.667 -77.667 -56.667 -135 -66zM674 384.999c92.667 0 139 37 139 111c0 79.333 -50 119 -150 119
h-422v-230h433z" />
    <glyph glyph-name="S" unicode="S" horiz-adv-x="939" 
d="M755 554c-107.333 54.667 -216.666 82 -327.999 82c-74 0 -130.667 -8.66699 -170 -26s-59 -41.333 -59 -72c0 -32 21 -55.333 63 -70c30 -10.667 79 -18 147 -22c100 -6.66699 166 -12 198 -16c90.667 -12 157.667 -34.333 201 -67s65 -79 65 -139
c0 -76.667 -34 -136 -102 -178s-165.667 -63 -293 -63c-184.667 0 -328.334 40.667 -431.001 122l66 87c113.333 -69.333 235.333 -104 366 -104c84.667 0 150.334 11.667 197.001 35c44.667 22.667 67 53.667 67 93c0 46 -29.333 76.667 -88 92
c-30.667 8 -113.334 16.333 -248.001 25c-119.333 8 -203 24 -251 48c-56 28 -84 75 -84 141c0 68 31.833 121.667 95.5 161s153.5 59 269.5 59c156 0 286.667 -35.667 392 -107z" />
    <glyph glyph-name="T" unicode="T" horiz-adv-x="852" 
d="M832 615h-346v-615h-120v615h-346v109h812v-109z" />
    <glyph glyph-name="U" unicode="U" horiz-adv-x="1052" 
d="M936 234c0 -75.333 -36.667 -136.333 -110 -183c-74.667 -48.667 -174.334 -73 -299.001 -73s-225 24.333 -301 73c-73.333 47.333 -110 108.333 -110 183v490h120v-461c0 -56.667 24.833 -100 74.5 -130s121.834 -45 216.501 -45s166.5 15 215.5 45
s73.5 73.333 73.5 130v461h120v-490z" />
    <glyph glyph-name="V" unicode="V" horiz-adv-x="928" 
d="M923 724l-390 -724h-138l-390 724h134l325 -604l325 604h134z" />
    <glyph glyph-name="W" unicode="W" horiz-adv-x="1186" 
d="M1166 724l-237 -724h-155l-181 605l-181 -605h-153l-239 724h134l182 -606l181 606h152l181 -606l182 606h134z" />
    <glyph glyph-name="X" unicode="X" horiz-adv-x="921" 
d="M908 0h-156l-292 292l-291 -292h-156l369 367l-356 357h156l279 -282l278 282h156l-356 -357z" />
    <glyph glyph-name="Y" unicode="Y" horiz-adv-x="922" 
d="M917 724l-396 -438v-286h-120v286l-396 438h149l308 -338l306 338h149z" />
    <glyph glyph-name="Z" unicode="Z" horiz-adv-x="887" 
d="M837 0h-787v109l598 506h-589v109h751v-109l-598 -506h625v-109z" />
    <glyph glyph-name="bracketleft" unicode="[" horiz-adv-x="450" 
d="M413 -141h-283v934h283v-56h-163v-822h163v-56z" />
    <glyph glyph-name="backslash" unicode="\" horiz-adv-x="542" 
d="M571 -10h-137l-463 734h136z" />
    <glyph glyph-name="bracketright" unicode="]" horiz-adv-x="443" 
d="M321 -141h-283v56h163v822h-163v56h283v-934z" />
    <glyph glyph-name="asciicircum" unicode="^" horiz-adv-x="786" 
d="M211 368c68 23.333 134.001 35 198.001 35c97.333 0 174.333 -18.667 231 -56s85 -86 85 -146c0 -62 -27.833 -112.5 -83.5 -151.5s-130.5 -58.5 -224.5 -58.5c-140 0 -258.333 43.667 -355 131l94 69c73.333 -60 159.666 -90 258.999 -90c60 0 106.333 9 139 27
s49 42.333 49 73c0 32 -18 57.667 -54 77s-86 29 -150 29c-75.333 0 -149.333 -18.333 -222 -55l-98 52l100 311h500v-109h-418z" />
    <glyph glyph-name="underscore" unicode="_" 
d="M500 -166v-70h-500v70h500z" />
    <glyph glyph-name="grave" unicode="`" 
d="M313 669h-61l-124 166h116z" />
    <glyph glyph-name="a" unicode="a" horiz-adv-x="845" 
d="M832 0h-132l-71 132h-413l-71 -132h-132l335 615h149zM569 241l-146 272l-147 -272h293z" />
    <glyph glyph-name="b" unicode="b" horiz-adv-x="916" 
d="M748 318c65.333 -33.333 98.001 -84.001 98.001 -152.001c0 -110.667 -80.333 -166 -241 -166h-500v615h506c65.333 0 116.666 -15.667 153.999 -47s56 -72.666 56 -123.999c0 -52 -24.333 -94 -73 -126zM613.001 364.999c28 0 50.167 6.5 66.5 19.5s24.5 30.5 24.5 52.5
c0 46 -29 69 -87 69h-392v-141h388zM605.001 108.999c38 0 67.5 6.33301 88.5 19s31.5 29.667 31.5 51c0 51.333 -36.667 77 -110 77h-390v-147h380z" />
    <glyph glyph-name="c" unicode="c" horiz-adv-x="904" 
d="M841 467l-110.001 -38c-66 65.333 -149.667 98 -251 98c-87.333 0 -157 -20.167 -209 -60.5s-78 -92.5 -78 -156.5c0 -66 26 -119 78 -159s122.333 -60 211 -60c102.667 0 186.334 33.667 251.001 101l103 -55c-90.667 -102 -209.667 -153 -357 -153
c-122.667 0 -221.834 30.5 -297.501 91.5s-113.5 139.167 -113.5 234.5c0 99.333 43 180.333 129 243c74.667 54.667 166.334 82 275.001 82c152.667 0 275.667 -56 369 -168z" />
    <glyph glyph-name="d" unicode="d" horiz-adv-x="920" 
d="M503 615c108 0 194.667 -28.333 260 -85s98 -129.334 98 -218.001c0 -80.667 -34.333 -158 -103 -232c-19.333 -21.333 -50 -39.666 -92 -54.999c-46 -16.667 -93.667 -25 -143 -25h-418v615h398zM531 109c58.667 0 106.833 18.332 144.5 54.999
s56.5 83.334 56.5 140.001c0 60.667 -20 109.5 -60 146.5s-93.333 55.5 -160 55.5h-287v-397h306z" />
    <glyph glyph-name="e" unicode="e" horiz-adv-x="817" 
d="M767 0h-662v615h639v-109h-519v-132h361v-109h-361v-156h542v-109z" />
    <glyph glyph-name="f" unicode="f" horiz-adv-x="769" 
d="M744 506h-519v-132h361v-109h-361v-265h-120v615h639v-109z" />
    <glyph glyph-name="g" unicode="g" horiz-adv-x="941" 
d="M873 337v-18.999c0 -100 -36.5 -181 -109.5 -243s-170.167 -93 -291.5 -93c-109.333 0 -201 27 -275 81c-86 62.667 -129 144.667 -129 246c0 100 43 181.333 129 244c75.333 55.333 169.333 83 282 83c136 0 248.667 -47.667 338 -143l-113 -56
c-62.667 60 -140 90 -232 90c-81.333 0 -148.333 -20.667 -201 -62s-79 -93.333 -79 -156c0 -64.667 25.667 -117.334 77 -158.001s119 -61 203 -61c126 0 209.667 46 251 138h-277v109h427z" />
    <glyph glyph-name="h" unicode="h" horiz-adv-x="925" 
d="M820 0h-120v265h-475v-265h-120v615h120v-241h475v241h120v-615z" />
    <glyph glyph-name="i" unicode="i" horiz-adv-x="330" 
d="M225 0h-120v615h120v-615z" />
    <glyph glyph-name="j" unicode="j" horiz-adv-x="700" 
d="M595 200c0 -70.667 -24.333 -124.667 -73 -162s-120 -56 -214 -56c-173.333 0 -264.666 74.667 -273.999 224h121c4.66699 -42.667 19.167 -72.834 43.5 -90.501s62.5 -26.5 114.5 -26.5c57.333 0 98.666 8.33301 123.999 25s38 45.334 38 86.001v415h120v-415z" />
    <glyph glyph-name="k" unicode="k" horiz-adv-x="849" 
d="M848 0h-155l-293 312l-175 -126v-186h-120v615h120v-301l419 301h177l-328 -236z" />
    <glyph glyph-name="l" unicode="l" horiz-adv-x="725" 
d="M700 0h-595v615h120v-506h475v-109z" />
    <glyph glyph-name="m" unicode="m" horiz-adv-x="1073" 
d="M968 0h-120l-3 506l-309 -419l-308 423l-3 -4v-506h-120v615h180l251 -348l252 348h180v-615z" />
    <glyph glyph-name="n" unicode="n" horiz-adv-x="927" 
d="M822 0h-179l-418 513v-513h-120v615h179l418 -513v513h120v-615z" />
    <glyph glyph-name="o" unicode="o" horiz-adv-x="945" 
d="M877 309c0 -100.667 -43 -182.668 -129 -246.001c-73.333 -54 -165 -81 -275 -81s-202 27 -276 81c-86 62.667 -129 144.667 -129 246c0 100 43.333 181.333 130 244c76 55.333 167.667 83 275 83c106.667 0 198 -27.667 274 -83
c86.667 -63.333 130 -144.666 130 -243.999zM752 308.999c0 63.333 -26 115.5 -78 156.5s-119 61.5 -201 61.5c-82.667 0 -150.167 -20.667 -202.5 -62s-78.5 -93.333 -78.5 -156c0 -65.333 25.667 -118.166 77 -158.499s119.333 -60.5 204 -60.5
c84 0 151.5 20.167 202.5 60.5s76.5 93.166 76.5 158.499z" />
    <glyph glyph-name="p" unicode="p" horiz-adv-x="836" 
d="M602 615c65.333 0 117.332 -17.668 155.999 -53.001s58 -82.666 58 -141.999c0 -62 -20.167 -109.833 -60.5 -143.5s-98.166 -50.5 -173.499 -50.5h-357v-226h-120v615h497zM583.999 334.999c72.667 0 109 27.667 109 83c0 58.667 -38.667 88 -116 88h-352v-171h359z" />
    <glyph glyph-name="q" unicode="q" horiz-adv-x="945" 
d="M582 -7c-40 -7.33301 -76.333 -11.001 -109 -11.001c-109.333 0 -201.333 27.333 -276 82c-86 62.667 -129 144.334 -129 245.001c0 100 43 181.667 129 245c75.333 55.333 167.333 83 276 83c108 0 199.667 -27.667 275 -83c86 -63.333 129 -145 129 -245
c0 -123.333 -60.667 -216 -182 -278l77 -84l-114 -35zM614 115.999c92 39.333 138 103.666 138 192.999c0 63.333 -26 115.666 -78 156.999s-119 62 -201 62c-82.667 0 -150.167 -20.667 -202.5 -62s-78.5 -93.666 -78.5 -156.999c0 -65.333 25.5 -118.166 76.5 -158.499
s119.167 -60.5 204.5 -60.5h18l-68 72l115 34z" />
    <glyph glyph-name="r" unicode="r" horiz-adv-x="894" 
d="M829 0l-138 -0.000976562l-161 226h-305v-226h-120v615h497c65.333 0 117.333 -17.667 156 -53s58 -82.666 58 -141.999c0 -102 -51 -164.333 -153 -187zM584 334.999c72.667 0 109 27.667 109 83c0 58.667 -38.667 88 -116 88h-352v-171h359z" />
    <glyph glyph-name="s" unicode="s" horiz-adv-x="814" 
d="M662 463c-80 42 -167.002 63.0029 -261.002 63.0029c-136.667 0 -205 -24.333 -205 -73c0 -28.667 25.667 -47.334 77 -56.001c70 -6 140 -12.333 210 -19c100.667 -10 172.334 -28 215.001 -54c47.333 -28.667 71 -72.334 71 -131.001c0 -66 -29.5 -117 -88.5 -153
s-144.5 -54 -256.5 -54c-158 0 -284.333 36 -379 108l65 85c84.667 -59.333 188.667 -89 312 -89c69.333 0 123 8.83301 161 26.5s57 41.167 57 70.5c0 32.667 -23.333 55.667 -70 69c-26 7.33301 -66.333 12.333 -121 15c-85.333 4 -137.666 7 -156.999 9
c-76 7.33301 -132 23.666 -168 48.999s-54 62.333 -54 111c0 58.667 28.833 105.167 86.5 139.5s138.5 51.5 242.5 51.5c138.667 0 251 -30 337 -90z" />
    <glyph glyph-name="t" unicode="t" horiz-adv-x="758" 
d="M733 506h-294v-506h-120v506h-294v109h708v-109z" />
    <glyph glyph-name="u" unicode="u" horiz-adv-x="911" 
d="M813 202c0 -64.667 -32.332 -117.5 -96.999 -158.5s-151.334 -61.5 -260.001 -61.5c-109.333 0 -196.333 20.5 -261 61.5s-97 93.833 -97 158.5v413h120v-389c0 -90.667 79.333 -136 238 -136c158 0 237 45.333 237 136v389h120v-413z" />
    <glyph glyph-name="v" unicode="v" horiz-adv-x="828" 
d="M823 615l-340 -615h-138l-340 615h133l276 -511l276 511h133z" />
    <glyph glyph-name="w" unicode="w" horiz-adv-x="1040" 
d="M1020 615l-209 -615h-144l-147 514l-147 -514h-144l-209 615h133l148 -511l147 511h144l147 -511l148 511h133z" />
    <glyph glyph-name="x" unicode="x" horiz-adv-x="818" 
d="M805 0h-151l-245 241l-245 -241h-151l320 312l-309 303h151l234 -232l234 232h151l-309 -303z" />
    <glyph glyph-name="y" unicode="y" horiz-adv-x="828" 
d="M823 615l-350 -373v-242h-120v242l-348 373h146l263 -280l263 280h146z" />
    <glyph glyph-name="z" unicode="z" horiz-adv-x="767" 
d="M727 0h-687v109l492 397h-485v109h657v-109l-493 -397h516v-109z" />
    <glyph glyph-name="braceleft" unicode="{" horiz-adv-x="413" 
d="M363 -141c-91.333 0 -153.167 12.499 -185.5 37.499s-48.5 74.167 -48.5 147.5c0 15.333 0.333008 35.833 1 61.5s1 43.834 1 54.501c0 60 -13.333 101.667 -40 125c-11.333 10 -34.333 23.667 -69 41c72.667 32 109 74 109 126v183c0 58 16 99 48 123
c30 23.333 80.667 35 152 35h32v-56c-74.667 0 -112 -38.667 -112 -116c0 -5.33301 0.333008 -17.333 1 -36v-47c0 -111.333 -18.667 -181.333 -56 -210v-2c38 -28.667 57 -97 57 -205c0 -9.33301 -0.333008 -25 -1 -47s-1 -39 -1 -51c0 -72 36.333 -108 109 -108h3v-56z
" />
    <glyph glyph-name="bar" unicode="|" horiz-adv-x="785" 
d="M184 298c64.667 63.333 146.335 95 245.002 95c85.333 0 155.666 -18.667 210.999 -56s83 -83.333 83 -138c0 -61.333 -27.333 -111.5 -82 -150.5s-126.667 -58.5 -216 -58.5c-108.667 0 -196.167 29.167 -262.5 87.5s-99.5 133.833 -99.5 226.5
c0 71.333 20.333 133.333 61 186c69.333 90 167.666 135 294.999 135c99.333 0 193.333 -40 282 -120l-89 -66c-49.333 50 -114.333 75 -195 75c-66.667 0 -122.167 -19.333 -166.5 -58s-66.5 -87 -66.5 -145v-13zM213.001 196c36 -64 106.667 -96 212 -96
c54.667 0 97.667 8.5 129 25.5s47 39.167 47 66.5c0 28.667 -16 52.5 -48 71.5s-74.667 28.5 -128 28.5c-92 0 -162.667 -32 -212 -96z" />
    <glyph glyph-name="braceright" unicode="}" horiz-adv-x="405" 
d="M380 326c-43.333 -18 -73.167 -40.499 -89.5 -67.499s-24.5 -66.167 -24.5 -117.5c0 -11.333 1.16699 -27.833 3.5 -49.5s3.5 -37.5 3.5 -47.5c0 -72 -16 -120.833 -48 -146.5s-92 -38.5 -180 -38.5h-6v56h3c72.667 0 109 38 109 114c0 9.33301 -0.333008 24 -1 44
s-1 35.333 -1 46c0 110.667 19 179.667 57 207v2c-37.333 27.333 -56 97 -56 209c0 5.33301 0.333008 17.666 1 36.999v50c0 75.333 -36.333 113 -109 113h-3v56h32c71.333 0 122.5 -11.833 153.5 -35.5s46.5 -64.5 46.5 -122.5v-183c0 -52 36.333 -94 109 -126z" />
    <glyph glyph-name="asciitilde" unicode="~" horiz-adv-x="714" 
d="M669 506l-406 -506h-140l407 506h-496v109h635v-109z" />
    <glyph glyph-name="nonbreakingspace" unicode="&#xa0;" horiz-adv-x="300" 
 />
    <glyph glyph-name="exclamdown" unicode="&#xa1;" horiz-adv-x="357" 
d="M261 615h-155v109h155v-109zM260 0h-152v55l28 478h96z" />
    <glyph glyph-name="cent" unicode="&#xa2;" horiz-adv-x="790" 
d="M715 474l-106.002 -36.001c-40.667 40 -89.667 64 -147 72v-293c58.667 6 108.334 29.667 149.001 71l99 -51c-65.333 -74.667 -148 -116.667 -248 -126v-111h-120v111c-178 30.667 -267 114.334 -267 251.001c0 64.667 22.833 118.667 68.5 162
s111.834 73.333 198.501 90v110h120v-112c102.667 -12 187 -58 253 -138zM341.998 215.999v293c-90 -24.667 -135 -73.667 -135 -147c0 -74 45 -122.667 135 -146z" />
    <glyph glyph-name="sterling" unicode="&#xa3;" horiz-adv-x="733" 
d="M704 31c-54.667 -24.667 -103.334 -36.998 -146.001 -36.998c-24.667 0 -66 5.33301 -124 16s-103.667 16 -137 16c-62.667 0 -125.334 -16.667 -188.001 -50l-68 108c80 63.333 120 129 120 197c0 12 -2.66699 28 -8 48h-119v96h88c-7.33301 28 -11 52.333 -11 73
c0 72 27.5 129.333 82.5 172s130.167 64 225.5 64c96.667 0 185.334 -32 266.001 -96l-60 -91c-64.667 52.667 -137 79 -217 79c-118 0 -177 -43.667 -177 -131c0 -18.667 4.66699 -42 14 -70h261v-96h-237c4 -20.667 6 -40.334 6 -59.001
c0 -60.667 -19 -108.334 -57 -143.001c24 2 43.667 3 59 3c34 0 79.833 -4.83301 137.5 -14.5s98.167 -14.5 121.5 -14.5c38.667 0 76.334 9.66699 113.001 29z" />
    <glyph glyph-name="currency" unicode="&#xa4;" horiz-adv-x="801" 
d="M735 306c0 -54.667 -13.002 -105.334 -39.002 -152.001s-62.333 -84 -109 -112c-57.333 -34.667 -119.666 -52 -186.999 -52s-129.666 17.333 -186.999 52c-46 28 -82 65.333 -108 112s-39 97.334 -39 152.001c0 88 33.667 164 101 228c62.667 60 141 90 235 90
c93.333 0 171.333 -30 234 -90c66 -63.333 99 -139.333 99 -228zM613.998 306c0 60.667 -19.999 110.5 -59.999 149.5s-91.333 58.5 -154 58.5s-113.834 -19.333 -153.501 -58s-59.5 -88.667 -59.5 -150c0 -60 20.167 -109.167 60.5 -147.5s91.833 -57.5 154.5 -57.5
s113.667 19.167 153 57.5s59 87.5 59 147.5z" />
    <glyph glyph-name="yen" unicode="&#xa5;" horiz-adv-x="944" 
d="M924 724l-270 -299h98v-96h-185l-39 -43v-42h224v-96h-224v-148h-120v148h-224v96h224v42l-39 43h-185v96h98l-270 299h149l308 -338l306 338h149z" />
    <glyph glyph-name="brokenbar" unicode="&#xa6;" 
d="M287 699v-370h-73v370h73zM287 199v-370h-73v370h73z" />
    <glyph glyph-name="section" unicode="&#xa7;" horiz-adv-x="904" 
d="M705 656c-94 47.333 -189.001 71.001 -285.001 71.001c-61.333 0 -108.666 -7 -141.999 -21s-50 -33 -50 -57c0 -24.667 18 -43 54 -55c22.667 -7.33301 56.5 -12.666 101.5 -15.999l135.5 -10c103.333 -10.667 176.666 -28.667 219.999 -54c48 -28.667 72 -73 72 -133
c0 -51.333 -20.333 -91 -61 -119c32 -32.667 48 -71 48 -115c0 -67.333 -29.833 -119.333 -89.5 -156s-145.5 -55 -257.5 -55c-161.333 0 -288.666 36.333 -381.999 109l67 88c102.667 -64 209 -96 319 -96c69.333 0 123 9.33301 161 28s57 43.667 57 75
c0 35.333 -23.333 59.666 -70 72.999c-27.333 8 -68.333 13.333 -123 16c-94.667 5.33301 -148 8.66602 -160 9.99902c-78 7.33301 -135.167 23.833 -171.5 49.5s-54.5 63.167 -54.5 112.5c0 52.667 22.333 93.334 67 122.001c-36 29.333 -54 66.666 -54 111.999
c0 60 28 107.333 84 142s135 52 237 52c147.333 0 263.333 -32.333 348 -97zM650.999 312.001c23.333 17.333 35 37.998 35 61.998c0 42 -34.667 69.333 -104 82c-26.667 4.66699 -71.667 8.33398 -135 11.001c-68 2 -121.667 6 -161 12
c-47.333 -13.333 -71 -34.666 -71 -63.999c0 -38 45 -61.667 135 -71c44.667 -2.66699 89.667 -5.66699 135 -9c62 -4 117.333 -11.667 166 -23z" />
    <glyph glyph-name="dieresis" unicode="&#xa8;" 
d="M415 746c0 -16.667 -6.33301 -31.167 -19 -43.5s-27.667 -18.5 -45 -18.5s-32.166 6 -44.499 18s-18.5 26.667 -18.5 44s6.16699 32.333 18.5 45s27.166 19 44.499 19s32.333 -6.33301 45 -19s19 -27.667 19 -45zM214 746c0 -16.667 -6.33301 -31.167 -19 -43.5
s-27.667 -18.5 -45 -18.5s-32.166 6 -44.499 18s-18.5 26.667 -18.5 44s6.16699 32.333 18.5 45s27.166 19 44.499 19s32.333 -6.33301 45 -19s19 -27.667 19 -45z" />
    <glyph glyph-name="copyright" unicode="&#xa9;" horiz-adv-x="833" 
d="M775 354c0 -99.333 -34.334 -183.333 -103.001 -252c-71.333 -71.333 -156.666 -107 -255.999 -107c-97.333 0 -181.333 35.333 -252 106s-106 155 -106 253c0 98.667 35.667 183.667 107 255c69.333 69.333 153 104 251 104c100.667 0 185.667 -34.667 255 -104
s104 -154.333 104 -255zM732.999 354c0 87.333 -30.499 161.832 -91.499 223.499s-136.167 92.5 -225.5 92.5c-86.667 0 -160.334 -30.333 -221.001 -91c-62.667 -62.667 -94 -137.667 -94 -225c0 -86 31 -160 93 -222s136 -93 222 -93c88 0 163.333 31.333 226 94
c60.667 60.667 91 134.334 91 221.001zM588 273.999c-22.667 -93.333 -80.333 -140.001 -173 -140.001c-57.333 0 -103 19.5 -137 58.5s-51 92.167 -51 159.5c0 68.667 17.5 123 52.5 163s81.833 60 140.5 60c86 0 140.333 -43.333 163 -130h-63
c-18 53.333 -50.667 80 -98 80c-83.333 0 -125 -57.333 -125 -172c0 -53.333 11.167 -94.666 33.5 -123.999s52.833 -44 91.5 -44c50.667 0 85 29.667 103 89h63z" />
    <glyph glyph-name="ordfeminine" unicode="&#xaa;" horiz-adv-x="558" 
d="M558 311h-99l-47 87h-266l-47 -87h-99l227 415h104zM367 480l-88 164l-88 -164h176z" />
    <glyph glyph-name="guillemotleft" unicode="&#xab;" horiz-adv-x="724" 
d="M649 484l-161 -163l159 -162h-147l-166 162l170 163h145zM390 484l-162 -163l159 -162h-147l-165 162l169 163h146z" />
    <glyph glyph-name="logicalnot" unicode="&#xac;" horiz-adv-x="795" 
d="M613 324c84 -34.667 126 -83.667 126 -147c0 -58.667 -29.333 -104.5 -88 -137.5s-143 -49.5 -253 -49.5s-194.5 16.5 -253.5 49.5s-88.5 78.833 -88.5 137.5c0 63.333 42 112.333 126 147c-56 32 -84 72.333 -84 121c0 55.333 26 98.666 78 129.999s125.333 47 220 47
c96 0 170.167 -15.667 222.5 -47s78.5 -74.666 78.5 -129.999c0 -48.667 -28 -89 -84 -121zM569 444c0 46.667 -57 70 -171 70c-114.667 0 -172 -23.333 -172 -70c0 -51.333 57.333 -77 172 -77c114 0 171 25.667 171 77zM607 185c0 54.667 -69.667 82 -209 82
c-140 0 -210 -27.333 -210 -82c0 -56 70 -84 210 -84c139.333 0 209 28 209 84z" />
    <glyph glyph-name="minus" unicode="&#xad;" horiz-adv-x="833" 
d="M709 333v-69h-585v69h585z" />
    <glyph glyph-name="minus" unicode="&#x2212;" horiz-adv-x="833" 
d="M709 333v-69h-585v69h585z" />
    <glyph glyph-name="registered" unicode="&#xae;" horiz-adv-x="379" 
d="M344 571c0 -42 -15.333 -78.167 -46 -108.5s-68 -45.5 -112 -45.5c-42 0 -77.667 15.167 -107 45.5s-44 67.5 -44 111.5c0 40.667 15.167 76 45.5 106s66.5 45 108.5 45c44 0 80.833 -14.833 110.5 -44.5s44.5 -66.167 44.5 -109.5zM321 571
c0 36.667 -12.499 67.5 -37.499 92.5s-56.5 37.5 -94.5 37.5c-36.667 0 -67.5 -12.5 -92.5 -37.5s-37.5 -55.833 -37.5 -92.5s12.667 -67.834 38 -93.501s56 -38.5 92 -38.5c37.333 0 68.666 12.833 93.999 38.5s38 56.834 38 93.501zM260.001 487l-40 0.000976562l-32 69
h-24v-69h-35v167h59c47.333 0 71 -16.333 71 -49c0 -20.667 -12 -35.334 -36 -44.001zM188.001 579.001c22 0 33 8 33 24s-11.667 24 -35 24h-22v-48h24z" />
    <glyph glyph-name="macron" unicode="&#xaf;" 
d="M421 701h-343v74h343v-74z" />
    <glyph glyph-name="macron" unicode="&#x2c9;" 
d="M421 701h-343v74h343v-74z" />
    <glyph glyph-name="degree" unicode="&#xb0;" horiz-adv-x="532" 
d="M448 559c0 -46.667 -18.333 -87.667 -55 -123c-34 -32.667 -76 -49 -126 -49s-92.333 16.333 -127 49c-36.667 34.667 -55 75.667 -55 123c0 46.667 18.333 87.667 55 123c34 32.667 76.333 49 127 49c50 0 92 -16.333 126 -49c36.667 -35.333 55 -76.333 55 -123z
M376 559c0 29.333 -10.667 54.333 -32 75s-47 31 -77 31c-30.667 0 -56.667 -10.333 -78 -31s-32 -45.667 -32 -75c0 -28.667 10.667 -53.167 32 -73.5s47.333 -30.5 78 -30.5s56.5 10.167 77.5 30.5s31.5 44.833 31.5 73.5z" />
    <glyph glyph-name="plusminus" unicode="&#xb1;" horiz-adv-x="833" 
d="M451 582v-166h258v-68h-258v-166h-69v166h-258v68h258v166h69zM709 83v-69h-585v69h585z" />
    <glyph glyph-name="twosuperior" unicode="&#xb2;" horiz-adv-x="553" 
d="M506 289l-486 -0.00195312c6 107.333 72.333 179 199 215l111 27c52 16.667 78 38.334 78 65.001c0 20.667 -11.333 37.167 -34 49.5s-54.334 18.5 -95.001 18.5c-68.667 0 -131 -20.333 -187 -61l-50 48c72.667 52 152.334 78 239.001 78
c62.667 0 113.834 -13 153.501 -39s59.5 -59 59.5 -99c0 -57.333 -42 -96.666 -126 -117.999c-31.333 -6.66699 -77.333 -17.667 -138 -33c-56.667 -17.333 -95.334 -46 -116.001 -86h392v-65z" />
    <glyph glyph-name="threesuperior" unicode="&#xb3;" horiz-adv-x="568" 
d="M412 518c64.667 -20.667 97 -56.333 97 -107c0 -40 -22 -71.5 -66 -94.5s-106.333 -34.5 -187 -34.5c-102.667 0 -184.667 29.667 -246 89l53 48c56 -47.333 123.333 -71 202 -71c106.667 0 160 24 160 72c0 43.333 -63.333 65 -190 65h-38v58h73
c88.667 0 133 21.667 133 65c0 37.333 -43.333 56 -130 56c-65.333 0 -126.333 -16.333 -183 -49l-45 45c73.333 46 149.333 69 228 69c66.667 0 118.667 -10.667 156 -32s56 -50 56 -86c0 -42.667 -24.333 -73.667 -73 -93z" />
    <glyph glyph-name="acute" unicode="&#xb4;" 
d="M374 835l-124 -166h-61l69 166h116z" />
    <glyph glyph-name="mu" unicode="&#xb5;" horiz-adv-x="562" 
d="M188 523l-63.001 -292.999c-4.66699 -22 -7 -43.667 -7 -65c0 -67.333 32.667 -101 98 -101c44 0 78.667 16 104 48c24 30 43.333 79.667 58 149l56 262h87l-76 -357c-7.33301 -34.667 -11 -56.334 -11 -65.001c0 -22 11.667 -33 35 -33c6.66699 0 12 0.333008 16 1
l-15 -70c-16 -3.33301 -33.667 -5 -53 -5c-37.333 0 -61.666 21 -72.999 63c-28.667 -42.667 -72.667 -64 -132 -64c-51.333 0 -93 19 -125 57l-54 -259h-88l155 732h88z" />
    <glyph glyph-name="mu" unicode="&#x3bc;" horiz-adv-x="562" 
d="M188 523l-63.001 -292.999c-4.66699 -22 -7 -43.667 -7 -65c0 -67.333 32.667 -101 98 -101c44 0 78.667 16 104 48c24 30 43.333 79.667 58 149l56 262h87l-76 -357c-7.33301 -34.667 -11 -56.334 -11 -65.001c0 -22 11.667 -33 35 -33c6.66699 0 12 0.333008 16 1
l-15 -70c-16 -3.33301 -33.667 -5 -53 -5c-37.333 0 -61.666 21 -72.999 63c-28.667 -42.667 -72.667 -64 -132 -64c-51.333 0 -93 19 -125 57l-54 -259h-88l155 732h88z" />
    <glyph glyph-name="paragraph" unicode="&#xb6;" horiz-adv-x="945" 
d="M796 -165h-120v441h-130v-441h-120v441h-112c-86 0 -151.5 19 -196.5 57s-67.5 93 -67.5 165c0 68.667 21.667 123.5 65 164.5s102 61.5 176 61.5h505v-889zM676 385v230h-130v-230h130zM426 385v230h-106c-98 0 -147 -39.667 -147 -119c0 -74 46.333 -111 139 -111h114z
" />
    <glyph glyph-name="periodcentered" unicode="&#xb7;" horiz-adv-x="465" 
d="M310 265h-155v109h155v-109z" />
    <glyph glyph-name="periodcentered" unicode="&#x2219;" horiz-adv-x="465" 
d="M310 265h-155v109h155v-109z" />
    <glyph glyph-name="cedilla" unicode="&#xb8;" 
d="M251 -46c53.333 -5.33301 80 -30.666 80 -75.999c0 -24.667 -9.83301 -44.834 -29.5 -60.501s-46.167 -23.5 -79.5 -23.5c-32 0 -64 6.33301 -96 19l19 36c21.333 -8 38.666 -12 51.999 -12c14.667 0 26.834 3.83301 36.501 11.5s14.5 16.5 14.5 26.5
c0 16 -8.33301 24 -25 24c-10 0 -19 -5.66699 -27 -17l-31 14l59 111h60z" />
    <glyph glyph-name="onesuperior" unicode="&#xb9;" horiz-adv-x="253" 
d="M174 289h-79v362l-77 -30v63c28.667 7.33301 54.667 20.333 78 39h78v-434z" />
    <glyph glyph-name="ordmasculine" unicode="&#xba;" horiz-adv-x="608" 
d="M568 521c0 -62.667 -24.5029 -114 -73.5029 -154s-112.5 -60 -190.5 -60c-77.333 0 -140.666 20.167 -189.999 60.5s-74 91.5 -74 153.5c0 60.667 24.833 111.5 74.5 152.5s112.834 61.5 189.501 61.5s139.834 -20.333 189.501 -61s74.5 -91.667 74.5 -153zM476.997 521
c0 38.667 -16 70.5 -48 95.5s-73.667 37.5 -125 37.5s-93 -12.5 -125 -37.5s-48 -56.833 -48 -95.5c0 -40 15.833 -72.333 47.5 -97s73.5 -37 125.5 -37s93.833 12.5 125.5 37.5s47.5 57.167 47.5 96.5z" />
    <glyph glyph-name="guillemotright" unicode="&#xbb;" horiz-adv-x="724" 
d="M649 321l-165 -162h-147l159 162l-162 163h146zM390 321l-166 -162h-147l159 162l-161 163h145z" />
    <glyph glyph-name="onequarter" unicode="&#xbc;" horiz-adv-x="1046" 
d="M166 318h-75v338l-73 -28v58c26.667 8 51 20.333 73 37h75v-405zM780 724l-647 -734h-137l648 734h136zM1031 80h-104v-80h-76v80h-300v61l302 264h74v-264h104v-61zM851 141v193l-220 -193h220z" />
    <glyph glyph-name="onehalf" unicode="&#xbd;" horiz-adv-x="1063" 
d="M166 318h-75v338l-73 -28v58c26.667 8 51 20.333 73 37h75v-405zM780 724l-647 -734h-137l648 734h136zM1018 0l-462.999 -0.000976562c4.66699 100 67.667 167 189 201c37.333 8 86.666 21.667 147.999 41c21.333 10.667 32 25.334 32 44.001
c0 19.333 -10.833 34.833 -32.5 46.5s-51.834 17.5 -90.501 17.5c-65.333 0 -124.666 -19 -177.999 -57l-48 45c69.333 48 145.333 72 228 72c60 0 108.833 -12 146.5 -36s56.5 -54.667 56.5 -92c0 -53.333 -40 -90.333 -120 -111c-30 -6 -60 -12.333 -90 -19
c-36 -8 -65 -17.333 -87 -28c-29.333 -15.333 -51 -36.333 -65 -63h374v-61z" />
    <glyph glyph-name="threequarters" unicode="&#xbe;" horiz-adv-x="1347" 
d="M393 531c62 -18 93.001 -51.001 93.001 -99.001c0 -37.333 -21 -66.666 -63 -87.999s-101.667 -32 -179 -32c-98 0 -176.333 27.333 -235 82l51 45c54.667 -44 119 -66 193 -66c102 0 153 22.667 153 68c0 40 -60.667 60 -182 60h-36v54h70c84.667 0 127 20 127 60
c0 35.333 -41.333 53 -124 53c-62.667 0 -121 -15 -175 -45l-43 41c69.333 42.667 141.666 64 216.999 64c64 0 113.833 -9.83301 149.5 -29.5s53.5 -46.5 53.5 -80.5c0 -38.667 -23.333 -67.667 -70 -87zM1081 723.999l-647 -734h-137l648 734h136zM1332 79.999h-104v-80
h-76v80h-300v61l302 264h74v-264h104v-61zM1152 140.999v193l-220 -193h220z" />
    <glyph glyph-name="questiondown" unicode="&#xbf;" horiz-adv-x="727" 
d="M521 615h-155v109h155v-109zM705 134c-88.667 -92.667 -199.333 -138.998 -332 -138.998c-102 0 -182 19.333 -240 58s-87 90.667 -87 156c0 47.333 11.667 84.166 35 110.499s62 47.166 116 62.499c34 8 79.333 21.333 136 40c40 19.333 61.333 56.333 64 111h97
c0.666992 -8.66699 1 -16.667 1 -24c0 -50 -12.667 -90 -38 -120s-66 -55 -122 -75c-69.333 -24.667 -108 -39 -116 -43c-29.333 -16 -44 -38 -44 -66c0 -69.333 66 -104 198 -104c106 0 189 32.667 249 98z" />
    <glyph glyph-name="Agrave" unicode="&#xc0;" horiz-adv-x="947" 
d="M932 0h-131l-84 162h-487l-84 -162h-131l383 724h151zM658 271l-184 350l-185 -350h369zM537 780h-61l-124 166h116z" />
    <glyph glyph-name="Aacute" unicode="&#xc1;" horiz-adv-x="947" 
d="M932 0h-131l-84 162h-487l-84 -162h-131l383 724h151zM658 271l-184 350l-185 -350h369zM598 946l-124 -166h-61l69 166h116z" />
    <glyph glyph-name="Acircumflex" unicode="&#xc2;" horiz-adv-x="947" 
d="M932 0h-131l-84 162h-487l-84 -162h-131l383 724h151zM658 271l-184 350l-185 -350h369zM667 779h-102l-91 99l-91 -99h-102l153 166h80z" />
    <glyph glyph-name="Atilde" unicode="&#xc3;" horiz-adv-x="947" 
d="M932 0h-131l-84 162h-487l-84 -162h-131l383 724h151zM658 271l-184 350l-185 -350h369zM644 880c-30 -56 -64.335 -84 -103.002 -84c-20 0 -44.667 6.16699 -74 18.5s-47.666 18.5 -54.999 18.5c-16 0 -33.667 -16 -53 -48l-59 46c44 52 80 78 108 78
c16.667 0 39.334 -6.33301 68.001 -19s48.667 -19 60 -19c17.333 0 35.333 15.333 54 46z" />
    <glyph glyph-name="Adieresis" unicode="&#xc4;" horiz-adv-x="947" 
d="M932 0h-131l-84 162h-487l-84 -162h-131l383 724h151zM658 271l-184 350l-185 -350h369zM639 857c0 -16.667 -6.33301 -31.167 -19 -43.5s-27.667 -18.5 -45 -18.5s-32.166 6 -44.499 18s-18.5 26.667 -18.5 44s6.16699 32.333 18.5 45s27.166 19 44.499 19
s32.333 -6.33301 45 -19s19 -27.667 19 -45zM438 857c0 -16.667 -6.33301 -31.167 -19 -43.5s-27.667 -18.5 -45 -18.5s-32.166 6 -44.499 18s-18.5 26.667 -18.5 44s6.16699 32.333 18.5 45s27.166 19 44.499 19s32.333 -6.33301 45 -19s19 -27.667 19 -45z" />
    <glyph glyph-name="Aring" unicode="&#xc5;" horiz-adv-x="947" 
d="M587 871c0 -26 -10.667 -47.833 -32 -65.5s-48.333 -26.5 -81 -26.5c-32 0 -58.667 8.83301 -80 26.5s-32 39.5 -32 65.5s10.667 48 32 66s48 27 80 27s58.833 -9 80.5 -27s32.5 -40 32.5 -66zM932 0h-131l-84 162h-487l-84 -162h-131l383 724h151zM527 871
c0 11.333 -5.16699 21.166 -15.5 29.499s-22.833 12.5 -37.5 12.5c-15.333 0 -27.833 -4.16699 -37.5 -12.5s-14.5 -18.166 -14.5 -29.499c0 -27.333 17.333 -41 52 -41c15.333 0 28 4 38 12s15 17.667 15 29zM658 271l-184 350l-185 -350h369z" />
    <glyph glyph-name="AE" unicode="&#xc6;" horiz-adv-x="1402" 
d="M1342 0h-758v162h-324l-113 -162h-132l511 724h788v-109h-610v-185h424v-109h-424v-212h638v-109zM584 271v349l-246 -349h246z" />
    <glyph glyph-name="Ccedilla" unicode="&#xc7;" horiz-adv-x="1046" 
d="M966 559l-109 -39.0029c-73.333 78 -176 117 -308 117c-100 0 -181.5 -25.667 -244.5 -77s-94.5 -116.666 -94.5 -195.999c0 -82 31.167 -148.167 93.5 -198.5s146.5 -75.5 252.5 -75.5c128 0 228.667 39.667 302 119l103 -57c-97.333 -114.667 -230.333 -172 -399 -172
h-5l-16 -26c53.333 -5.33301 80 -30.666 80 -75.999c0 -24.667 -9.83301 -44.834 -29.5 -60.501s-46.167 -23.5 -79.5 -23.5c-32 0 -64 6.33301 -96 19l19 36c21.333 -8 38.666 -12 51.999 -12c14.667 0 26.834 3.83301 36.501 11.5s14.5 16.5 14.5 26.5
c0 16 -8.33301 24 -25 24c-10 0 -19 -5.66699 -27 -17l-31 14c8.66699 15.333 24 44 46 86c-132 14.667 -234.333 55.834 -307 123.501s-109 153.834 -109 258.501c0 116.667 49 212 147 286c85.333 64.667 191 97 317 97c182 0 321 -62.667 417 -188z" />
    <glyph glyph-name="Egrave" unicode="&#xc8;" horiz-adv-x="939" 
d="M879 0h-758v724h730v-109h-610v-185h424v-109h-424v-212h638v-109zM542 780h-61l-124 166h116z" />
    <glyph glyph-name="Eacute" unicode="&#xc9;" horiz-adv-x="939" 
d="M879 0h-758v724h730v-109h-610v-185h424v-109h-424v-212h638v-109zM603 946l-124 -166h-61l69 166h116z" />
    <glyph glyph-name="Ecircumflex" unicode="&#xca;" horiz-adv-x="939" 
d="M879 0h-758v724h730v-109h-610v-185h424v-109h-424v-212h638v-109zM672 779h-102l-91 99l-91 -99h-102l153 166h80z" />
    <glyph glyph-name="Edieresis" unicode="&#xcb;" horiz-adv-x="939" 
d="M879 0h-758v724h730v-109h-610v-185h424v-109h-424v-212h638v-109zM644 857c0 -16.667 -6.33301 -31.167 -19 -43.5s-27.667 -18.5 -45 -18.5s-32.166 6 -44.499 18s-18.5 26.667 -18.5 44s6.16699 32.333 18.5 45s27.166 19 44.499 19s32.333 -6.33301 45 -19
s19 -27.667 19 -45zM443 857c0 -16.667 -6.33301 -31.167 -19 -43.5s-27.667 -18.5 -45 -18.5s-32.166 6 -44.499 18s-18.5 26.667 -18.5 44s6.16699 32.333 18.5 45s27.166 19 44.499 19s32.333 -6.33301 45 -19s19 -27.667 19 -45z" />
    <glyph glyph-name="Igrave" unicode="&#xcc;" horiz-adv-x="362" 
d="M241 0h-120v724h120v-724zM244 780h-61l-124 166h116z" />
    <glyph glyph-name="Iacute" unicode="&#xcd;" horiz-adv-x="362" 
d="M241 0h-120v724h120v-724zM305 946l-124 -166h-61l69 166h116z" />
    <glyph glyph-name="Icircumflex" unicode="&#xce;" horiz-adv-x="362" 
d="M241 0h-120v724h120v-724zM374 779h-102l-91 99l-91 -99h-102l153 166h80z" />
    <glyph glyph-name="Idieresis" unicode="&#xcf;" horiz-adv-x="362" 
d="M241 0h-120v724h120v-724zM346 857c0 -16.667 -6.33301 -31.167 -19 -43.5s-27.667 -18.5 -45 -18.5s-32.166 6 -44.499 18s-18.5 26.667 -18.5 44s6.16699 32.333 18.5 45s27.166 19 44.499 19s32.333 -6.33301 45 -19s19 -27.667 19 -45zM145 857
c0 -16.667 -6.33301 -31.167 -19 -43.5s-27.667 -18.5 -45 -18.5s-32.166 6 -44.499 18s-18.5 26.667 -18.5 44s6.16699 32.333 18.5 45s27.166 19 44.499 19s32.333 -6.33301 45 -19s19 -27.667 19 -45z" />
    <glyph glyph-name="Eth" unicode="&#xd0;" horiz-adv-x="1065" 
d="M579 724c126 0 225.833 -33.5 299.5 -100.5s110.5 -156.833 110.5 -269.5c0 -103.333 -39 -189.333 -117 -258c-72.667 -64 -162.667 -96 -270 -96h-481v324h-72v109h72v291h458zM612 109c72 0 131.168 23.168 177.501 69.501s69.5 105.833 69.5 178.5
c0 77.333 -24.833 139.666 -74.5 186.999s-114.834 71 -195.501 71h-348v-182h335v-109h-335v-215h371z" />
    <glyph glyph-name="Ntilde" unicode="&#xd1;" horiz-adv-x="1064" 
d="M943 0h-148l-554 594v-594h-120v724h149l553 -594v594h120v-724zM702 880c-30 -56 -64.335 -84 -103.002 -84c-20 0 -44.667 6.16699 -74 18.5s-47.666 18.5 -54.999 18.5c-16 0 -33.667 -16 -53 -48l-59 46c44 52 80 78 108 78c16.667 0 39.334 -6.33301 68.001 -19
s48.667 -19 60 -19c17.333 0 35.333 15.333 54 46z" />
    <glyph glyph-name="Ograve" unicode="&#xd2;" horiz-adv-x="1096" 
d="M1013 363c0 -118.667 -48.667 -214.667 -146 -288c-85.333 -64 -191.333 -96 -318 -96c-128 0 -234.667 32.333 -320 97c-97.333 73.333 -146 169 -146 287c0 116 49.333 211.333 148 286c86.667 65.333 192.667 98 318 98c126 0 231.667 -32.667 317 -98
c98 -74.667 147 -170 147 -286zM888 363c0 84.667 -36.001 153.333 -108.001 206c-62 45.333 -139 68 -231 68c-100.667 0 -182.667 -25.833 -246 -77.5s-95 -117.167 -95 -196.5c0 -82 31 -148.167 93 -198.5s144.667 -75.5 248 -75.5c102.667 0 184.834 25.333 246.501 76
s92.5 116.667 92.5 198zM610.999 779.999h-61l-124 166h116z" />
    <glyph glyph-name="Oacute" unicode="&#xd3;" horiz-adv-x="1096" 
d="M1013 363c0 -118.667 -48.667 -214.667 -146 -288c-85.333 -64 -191.333 -96 -318 -96c-128 0 -234.667 32.333 -320 97c-97.333 73.333 -146 169 -146 287c0 116 49.333 211.333 148 286c86.667 65.333 192.667 98 318 98c126 0 231.667 -32.667 317 -98
c98 -74.667 147 -170 147 -286zM888 363c0 84.667 -36.001 153.333 -108.001 206c-62 45.333 -139 68 -231 68c-100.667 0 -182.667 -25.833 -246 -77.5s-95 -117.167 -95 -196.5c0 -82 31 -148.167 93 -198.5s144.667 -75.5 248 -75.5c102.667 0 184.834 25.333 246.501 76
s92.5 116.667 92.5 198zM671.999 945.999l-124 -166h-61l69 166h116z" />
    <glyph glyph-name="Ocircumflex" unicode="&#xd4;" horiz-adv-x="1096" 
d="M1013 363c0 -118.667 -48.667 -214.667 -146 -288c-85.333 -64 -191.333 -96 -318 -96c-128 0 -234.667 32.333 -320 97c-97.333 73.333 -146 169 -146 287c0 116 49.333 211.333 148 286c86.667 65.333 192.667 98 318 98c126 0 231.667 -32.667 317 -98
c98 -74.667 147 -170 147 -286zM888 363c0 84.667 -36.001 153.333 -108.001 206c-62 45.333 -139 68 -231 68c-100.667 0 -182.667 -25.833 -246 -77.5s-95 -117.167 -95 -196.5c0 -82 31 -148.167 93 -198.5s144.667 -75.5 248 -75.5c102.667 0 184.834 25.333 246.501 76
s92.5 116.667 92.5 198zM740.999 778.999h-102l-91 99l-91 -99h-102l153 166h80z" />
    <glyph glyph-name="Otilde" unicode="&#xd5;" horiz-adv-x="1096" 
d="M1013 363c0 -118.667 -48.667 -214.667 -146 -288c-85.333 -64 -191.333 -96 -318 -96c-128 0 -234.667 32.333 -320 97c-97.333 73.333 -146 169 -146 287c0 116 49.333 211.333 148 286c86.667 65.333 192.667 98 318 98c126 0 231.667 -32.667 317 -98
c98 -74.667 147 -170 147 -286zM888 363c0 84.667 -36.001 153.333 -108.001 206c-62 45.333 -139 68 -231 68c-100.667 0 -182.667 -25.833 -246 -77.5s-95 -117.167 -95 -196.5c0 -82 31 -148.167 93 -198.5s144.667 -75.5 248 -75.5c102.667 0 184.834 25.333 246.501 76
s92.5 116.667 92.5 198zM717.999 879.999c-30 -56 -64.335 -84 -103.002 -84c-20 0 -44.667 6.16699 -74 18.5s-47.666 18.5 -54.999 18.5c-16 0 -33.667 -16 -53 -48l-59 46c44 52 80 78 108 78c16.667 0 39.334 -6.33301 68.001 -19s48.667 -19 60 -19
c17.333 0 35.333 15.333 54 46z" />
    <glyph glyph-name="Odieresis" unicode="&#xd6;" horiz-adv-x="1096" 
d="M1013 363c0 -118.667 -48.667 -214.667 -146 -288c-85.333 -64 -191.333 -96 -318 -96c-128 0 -234.667 32.333 -320 97c-97.333 73.333 -146 169 -146 287c0 116 49.333 211.333 148 286c86.667 65.333 192.667 98 318 98c126 0 231.667 -32.667 317 -98
c98 -74.667 147 -170 147 -286zM888 363c0 84.667 -36.001 153.333 -108.001 206c-62 45.333 -139 68 -231 68c-100.667 0 -182.667 -25.833 -246 -77.5s-95 -117.167 -95 -196.5c0 -82 31 -148.167 93 -198.5s144.667 -75.5 248 -75.5c102.667 0 184.834 25.333 246.501 76
s92.5 116.667 92.5 198zM712.999 856.999c0 -16.667 -6.33301 -31.167 -19 -43.5s-27.667 -18.5 -45 -18.5s-32.166 6 -44.499 18s-18.5 26.667 -18.5 44s6.16699 32.333 18.5 45s27.166 19 44.499 19s32.333 -6.33301 45 -19s19 -27.667 19 -45zM511.999 856.999
c0 -16.667 -6.33301 -31.167 -19 -43.5s-27.667 -18.5 -45 -18.5s-32.166 6 -44.499 18s-18.5 26.667 -18.5 44s6.16699 32.333 18.5 45s27.166 19 44.499 19s32.333 -6.33301 45 -19s19 -27.667 19 -45z" />
    <glyph glyph-name="multiply" unicode="&#xd7;" horiz-adv-x="833" 
d="M420 346l229 229l48 -48l-229 -229l229 -229l-48 -47l-229 228l-229 -228l-48 47l229 229l-229 229l48 48z" />
    <glyph glyph-name="Oslash" unicode="&#xd8;" horiz-adv-x="1096" 
d="M836 669c118 -74.667 176.999 -176.667 176.999 -306c0 -118 -48.667 -214 -146 -288c-84 -64 -190 -96 -318 -96c-80 0 -160 16.667 -240 50l-61 -73h-95l91 110c-107.333 73.333 -161 172.333 -161 297c0 116 49.333 211.333 148 286c86.667 65.333 192.667 98 318 98
c72.667 0 146.334 -14.667 221.001 -44l61 74h94zM381.999 119c54 -20 109.666 -30 166.999 -30c102.667 0 184.834 25.333 246.501 76s92.5 116.667 92.5 198c0 88 -41.667 160.333 -125 217zM694.998 613c-48.667 16 -97.334 24.001 -146.001 24.001
c-91.333 0 -168.666 -22.667 -231.999 -68c-72.667 -52 -109 -120.667 -109 -206c0 -82.667 36 -152.334 108 -209.001z" />
    <glyph glyph-name="Ugrave" unicode="&#xd9;" horiz-adv-x="1052" 
d="M936 234c0 -75.333 -36.667 -136.333 -110 -183c-74.667 -48.667 -174.334 -73 -299.001 -73s-225 24.333 -301 73c-73.333 47.333 -110 108.333 -110 183v490h120v-461c0 -56.667 24.833 -100 74.5 -130s121.834 -45 216.501 -45s166.5 15 215.5 45
s73.5 73.333 73.5 130v461h120v-490zM589 780h-61l-124 166h116z" />
    <glyph glyph-name="Uacute" unicode="&#xda;" horiz-adv-x="1052" 
d="M936 234c0 -75.333 -36.667 -136.333 -110 -183c-74.667 -48.667 -174.334 -73 -299.001 -73s-225 24.333 -301 73c-73.333 47.333 -110 108.333 -110 183v490h120v-461c0 -56.667 24.833 -100 74.5 -130s121.834 -45 216.501 -45s166.5 15 215.5 45
s73.5 73.333 73.5 130v461h120v-490zM650 946l-124 -166h-61l69 166h116z" />
    <glyph glyph-name="Ucircumflex" unicode="&#xdb;" horiz-adv-x="1052" 
d="M936 234c0 -75.333 -36.667 -136.333 -110 -183c-74.667 -48.667 -174.334 -73 -299.001 -73s-225 24.333 -301 73c-73.333 47.333 -110 108.333 -110 183v490h120v-461c0 -56.667 24.833 -100 74.5 -130s121.834 -45 216.501 -45s166.5 15 215.5 45
s73.5 73.333 73.5 130v461h120v-490zM719 779h-102l-91 99l-91 -99h-102l153 166h80z" />
    <glyph glyph-name="Udieresis" unicode="&#xdc;" horiz-adv-x="1052" 
d="M936 234c0 -75.333 -36.667 -136.333 -110 -183c-74.667 -48.667 -174.334 -73 -299.001 -73s-225 24.333 -301 73c-73.333 47.333 -110 108.333 -110 183v490h120v-461c0 -56.667 24.833 -100 74.5 -130s121.834 -45 216.501 -45s166.5 15 215.5 45
s73.5 73.333 73.5 130v461h120v-490zM691 857c0 -16.667 -6.33301 -31.167 -19 -43.5s-27.667 -18.5 -45 -18.5s-32.166 6 -44.499 18s-18.5 26.667 -18.5 44s6.16699 32.333 18.5 45s27.166 19 44.499 19s32.333 -6.33301 45 -19s19 -27.667 19 -45zM490 857
c0 -16.667 -6.33301 -31.167 -19 -43.5s-27.667 -18.5 -45 -18.5s-32.166 6 -44.499 18s-18.5 26.667 -18.5 44s6.16699 32.333 18.5 45s27.166 19 44.499 19s32.333 -6.33301 45 -19s19 -27.667 19 -45z" />
    <glyph glyph-name="Yacute" unicode="&#xdd;" horiz-adv-x="922" 
d="M917 724l-396 -438v-286h-120v286l-396 438h149l308 -338l306 338h149zM585 946l-124 -166h-61l69 166h116z" />
    <glyph glyph-name="Thorn" unicode="&#xde;" horiz-adv-x="953" 
d="M695 615c74 0 132.667 -20.5 176 -61.5s65 -95.833 65 -164.5c0 -72 -22.5 -127 -67.5 -165s-110.5 -57 -196.5 -57h-431v-167h-120v724h120v-109h454zM674 276c92.667 0 139 37 139 111c0 79.333 -49 119 -147 119h-425v-230h433z" />
    <glyph glyph-name="germandbls" unicode="&#xdf;" horiz-adv-x="1583" 
d="M1431 463c-80 42 -167.335 63.002 -262.002 63.002c-136 0 -204 -24.333 -204 -73c0 -28.667 25.333 -47.334 76 -56.001c70.667 -6 141 -12.333 211 -19c100 -10 171.667 -28 215 -54c47.333 -28.667 71 -72.334 71 -131.001c0 -65.333 -29.667 -116.166 -89 -152.499
s-144.666 -54.5 -255.999 -54.5c-158 0 -284.333 36 -379 108l65 85c84.667 -59.333 188.667 -89 312 -89c69.333 0 123 8.83301 161 26.5s57 41.167 57 70.5c0 32.667 -23.333 55.667 -70 69c-26 7.33301 -66.333 12.333 -121 15c-85.333 4 -137.666 7 -156.999 9
c-76 7.33301 -132 23.666 -168 48.999s-54 62.333 -54 111c0 58.667 28.667 105.167 86 139.5s138 51.5 242 51.5c138 0 250.333 -30 337 -90zM661.998 463.002c-80 42 -167.002 63.0029 -261.002 63.0029c-136.667 0 -205 -24.333 -205 -73
c0 -28.667 25.667 -47.334 77 -56.001c70 -6 140 -12.333 210 -19c100.667 -10 172.334 -28 215.001 -54c47.333 -28.667 71 -72.334 71 -131.001c0 -66 -29.5 -117 -88.5 -153s-144.5 -54 -256.5 -54c-158 0 -284.333 36 -379 108l65 85
c84.667 -59.333 188.667 -89 312 -89c69.333 0 123 8.83301 161 26.5s57 41.167 57 70.5c0 32.667 -23.333 55.667 -70 69c-26 7.33301 -66.333 12.333 -121 15c-85.333 4 -137.666 7 -156.999 9c-76 7.33301 -132 23.666 -168 48.999s-54 62.333 -54 111
c0 58.667 28.833 105.167 86.5 139.5s138.5 51.5 242.5 51.5c138.667 0 251 -30 337 -90z" />
    <glyph glyph-name="agrave" unicode="&#xe0;" horiz-adv-x="845" 
d="M832 0h-132l-71 132h-413l-71 -132h-132l335 615h149zM569 241l-146 272l-147 -272h293zM486 669h-61l-124 166h116z" />
    <glyph glyph-name="aacute" unicode="&#xe1;" horiz-adv-x="845" 
d="M832 0h-132l-71 132h-413l-71 -132h-132l335 615h149zM569 241l-146 272l-147 -272h293zM547 835l-124 -166h-61l69 166h116z" />
    <glyph glyph-name="acircumflex" unicode="&#xe2;" horiz-adv-x="845" 
d="M832 0h-132l-71 132h-413l-71 -132h-132l335 615h149zM569 241l-146 272l-147 -272h293zM616 668h-102l-91 99l-91 -99h-102l153 166h80z" />
    <glyph glyph-name="atilde" unicode="&#xe3;" horiz-adv-x="845" 
d="M832 0h-132l-71 132h-413l-71 -132h-132l335 615h149zM569 241l-146 272l-147 -272h293zM593 769c-30 -56 -64.335 -84 -103.002 -84c-20 0 -44.667 6.16699 -74 18.5s-47.666 18.5 -54.999 18.5c-16 0 -33.667 -16 -53 -48l-59 46c44 52 80 78 108 78
c16.667 0 39.334 -6.33301 68.001 -19s48.667 -19 60 -19c17.333 0 35.333 15.333 54 46z" />
    <glyph glyph-name="adieresis" unicode="&#xe4;" horiz-adv-x="845" 
d="M832 0h-132l-71 132h-413l-71 -132h-132l335 615h149zM569 241l-146 272l-147 -272h293zM588 746c0 -16.667 -6.33301 -31.167 -19 -43.5s-27.667 -18.5 -45 -18.5s-32.166 6 -44.499 18s-18.5 26.667 -18.5 44s6.16699 32.333 18.5 45s27.166 19 44.499 19
s32.333 -6.33301 45 -19s19 -27.667 19 -45zM387 746c0 -16.667 -6.33301 -31.167 -19 -43.5s-27.667 -18.5 -45 -18.5s-32.166 6 -44.499 18s-18.5 26.667 -18.5 44s6.16699 32.333 18.5 45s27.166 19 44.499 19s32.333 -6.33301 45 -19s19 -27.667 19 -45z" />
    <glyph glyph-name="aring" unicode="&#xe5;" horiz-adv-x="845" 
d="M536 763c0 -26 -10.833 -47.833 -32.5 -65.5s-48.5 -26.5 -80.5 -26.5s-58.667 8.83301 -80 26.5s-32 39.5 -32 65.5s10.667 48 32 66s48 27 80 27s58.833 -9 80.5 -27s32.5 -40 32.5 -66zM832 0h-132l-71 132h-413l-71 -132h-132l335 615h149zM476 763
c0 11.333 -5 21.166 -15 29.499s-22.667 12.5 -38 12.5s-28 -4.16699 -38 -12.5s-15 -18.166 -15 -29.499s5 -21 15 -29s22.667 -12 38 -12c14.667 0 27.167 4 37.5 12s15.5 17.667 15.5 29zM569 241l-146 272l-147 -272h293z" />
    <glyph glyph-name="ae" unicode="&#xe6;" horiz-adv-x="1217" 
d="M1167 0h-662v132h-274l-98 -132h-120l447 615h684v-109h-519v-132h361v-109h-361v-156h542v-109zM505 241v268l-195 -268h195z" />
    <glyph glyph-name="ccedilla" unicode="&#xe7;" horiz-adv-x="904" 
d="M841 467l-110 -38c-65.333 65.333 -151.666 98 -258.999 98c-82.667 0 -149.834 -20.333 -201.501 -61s-77.5 -92.667 -77.5 -156c0 -64.667 25.5 -117.334 76.5 -158.001s118.5 -61 202.5 -61c108.667 0 195.667 33.667 261 101l103 -55
c-88.667 -101.333 -204.334 -152.333 -347.001 -153l-19 -30c53.333 -5.33301 80 -30.666 80 -75.999c0 -24.667 -9.83301 -44.834 -29.5 -60.501s-46.167 -23.5 -79.5 -23.5c-32 0 -64 6.33301 -96 19l19 36c21.333 -8 38.666 -12 51.999 -12
c14.667 0 26.834 3.83301 36.501 11.5s14.5 16.5 14.5 26.5c0 16 -8.33301 24 -25 24c-10 0 -19 -5.66699 -27 -17l-31 14c15.333 26.667 31.333 56.334 48 89.001c-115.333 12 -204.833 47 -268.5 105s-95.5 131.333 -95.5 220c0 99.333 43 180.333 129 243
c74.667 54.667 166.334 82 275.001 82c150.667 0 273.667 -56 369 -168z" />
    <glyph glyph-name="egrave" unicode="&#xe8;" horiz-adv-x="817" 
d="M767 0h-662v615h639v-109h-519v-132h361v-109h-361v-156h542v-109zM478 669h-61l-124 166h116z" />
    <glyph glyph-name="eacute" unicode="&#xe9;" horiz-adv-x="817" 
d="M767 0h-662v615h639v-109h-519v-132h361v-109h-361v-156h542v-109zM539 835l-124 -166h-61l69 166h116z" />
    <glyph glyph-name="ecircumflex" unicode="&#xea;" horiz-adv-x="817" 
d="M767 0h-662v615h639v-109h-519v-132h361v-109h-361v-156h542v-109zM608 668h-102l-91 99l-91 -99h-102l153 166h80z" />
    <glyph glyph-name="edieresis" unicode="&#xeb;" horiz-adv-x="817" 
d="M767 0h-662v615h639v-109h-519v-132h361v-109h-361v-156h542v-109zM580 746c0 -16.667 -6.33301 -31.167 -19 -43.5s-27.667 -18.5 -45 -18.5s-32.166 6 -44.499 18s-18.5 26.667 -18.5 44s6.16699 32.333 18.5 45s27.166 19 44.499 19s32.333 -6.33301 45 -19
s19 -27.667 19 -45zM379 746c0 -16.667 -6.33301 -31.167 -19 -43.5s-27.667 -18.5 -45 -18.5s-32.166 6 -44.499 18s-18.5 26.667 -18.5 44s6.16699 32.333 18.5 45s27.166 19 44.499 19s32.333 -6.33301 45 -19s19 -27.667 19 -45z" />
    <glyph glyph-name="igrave" unicode="&#xec;" horiz-adv-x="330" 
d="M225 0h-120v615h120v-615zM228 669h-61l-124 166h116z" />
    <glyph glyph-name="iacute" unicode="&#xed;" horiz-adv-x="330" 
d="M225 0h-120v615h120v-615zM289 835l-124 -166h-61l69 166h116z" />
    <glyph glyph-name="icircumflex" unicode="&#xee;" horiz-adv-x="330" 
d="M225 0h-120v615h120v-615zM358 668h-102l-91 99l-91 -99h-102l153 166h80z" />
    <glyph glyph-name="idieresis" unicode="&#xef;" horiz-adv-x="330" 
d="M225 0h-120v615h120v-615zM330 746c0 -16.667 -6.33301 -31.167 -19 -43.5s-27.667 -18.5 -45 -18.5s-32.166 6 -44.499 18s-18.5 26.667 -18.5 44s6.16699 32.333 18.5 45s27.166 19 44.499 19s32.333 -6.33301 45 -19s19 -27.667 19 -45zM129 746
c0 -16.667 -6.33301 -31.167 -19 -43.5s-27.667 -18.5 -45 -18.5s-32.166 6 -44.499 18s-18.5 26.667 -18.5 44s6.16699 32.333 18.5 45s27.166 19 44.499 19s32.333 -6.33301 45 -19s19 -27.667 19 -45z" />
    <glyph glyph-name="eth" unicode="&#xf0;" horiz-adv-x="920" 
d="M502 615c108 0 194.667 -28.332 260 -84.999s98 -129.334 98 -218.001s-34.667 -166 -104 -232c-21.333 -20.667 -53.333 -38.667 -96 -54c-47.333 -17.333 -93.333 -26 -138 -26h-418v258h-50v109h50v248h398zM530 109.001c58.667 0 106.833 18.332 144.5 54.999
s56.5 83.334 56.5 140.001c0 60.667 -20 109.5 -60 146.5s-93.333 55.5 -160 55.5h-287v-139h287v-109h-287v-149h306z" />
    <glyph glyph-name="ntilde" unicode="&#xf1;" horiz-adv-x="927" 
d="M822 0h-179l-418 513v-513h-120v615h179l418 -513v513h120v-615zM634 769c-30 -56 -64.335 -84 -103.002 -84c-20 0 -44.667 6.16699 -74 18.5s-47.666 18.5 -54.999 18.5c-16 0 -33.667 -16 -53 -48l-59 46c44 52 80 78 108 78c16.667 0 39.334 -6.33301 68.001 -19
s48.667 -19 60 -19c17.333 0 35.333 15.333 54 46z" />
    <glyph glyph-name="ograve" unicode="&#xf2;" horiz-adv-x="945" 
d="M877 309c0 -100.667 -43 -182.668 -129 -246.001c-73.333 -54 -165 -81 -275 -81s-202 27 -276 81c-86 62.667 -129 144.667 -129 246c0 100 43.333 181.333 130 244c76 55.333 167.667 83 275 83c106.667 0 198 -27.667 274 -83
c86.667 -63.333 130 -144.666 130 -243.999zM752 308.999c0 63.333 -26 115.5 -78 156.5s-119 61.5 -201 61.5c-82.667 0 -150.167 -20.667 -202.5 -62s-78.5 -93.333 -78.5 -156c0 -65.333 25.667 -118.166 77 -158.499s119.333 -60.5 204 -60.5
c84 0 151.5 20.167 202.5 60.5s76.5 93.166 76.5 158.499zM536 668.999h-61l-124 166h116z" />
    <glyph glyph-name="oacute" unicode="&#xf3;" horiz-adv-x="945" 
d="M877 309c0 -100.667 -43 -182.668 -129 -246.001c-73.333 -54 -165 -81 -275 -81s-202 27 -276 81c-86 62.667 -129 144.667 -129 246c0 100 43.333 181.333 130 244c76 55.333 167.667 83 275 83c106.667 0 198 -27.667 274 -83
c86.667 -63.333 130 -144.666 130 -243.999zM752 308.999c0 63.333 -26 115.5 -78 156.5s-119 61.5 -201 61.5c-82.667 0 -150.167 -20.667 -202.5 -62s-78.5 -93.333 -78.5 -156c0 -65.333 25.667 -118.166 77 -158.499s119.333 -60.5 204 -60.5
c84 0 151.5 20.167 202.5 60.5s76.5 93.166 76.5 158.499zM597 834.999l-124 -166h-61l69 166h116z" />
    <glyph glyph-name="ocircumflex" unicode="&#xf4;" horiz-adv-x="945" 
d="M877 309c0 -100.667 -43 -182.668 -129 -246.001c-73.333 -54 -165 -81 -275 -81s-202 27 -276 81c-86 62.667 -129 144.667 -129 246c0 100 43.333 181.333 130 244c76 55.333 167.667 83 275 83c106.667 0 198 -27.667 274 -83
c86.667 -63.333 130 -144.666 130 -243.999zM752 308.999c0 63.333 -26 115.5 -78 156.5s-119 61.5 -201 61.5c-82.667 0 -150.167 -20.667 -202.5 -62s-78.5 -93.333 -78.5 -156c0 -65.333 25.667 -118.166 77 -158.499s119.333 -60.5 204 -60.5
c84 0 151.5 20.167 202.5 60.5s76.5 93.166 76.5 158.499zM666 667.999h-102l-91 99l-91 -99h-102l153 166h80z" />
    <glyph glyph-name="otilde" unicode="&#xf5;" horiz-adv-x="945" 
d="M877 309c0 -100.667 -43 -182.668 -129 -246.001c-73.333 -54 -165 -81 -275 -81s-202 27 -276 81c-86 62.667 -129 144.667 -129 246c0 100 43.333 181.333 130 244c76 55.333 167.667 83 275 83c106.667 0 198 -27.667 274 -83
c86.667 -63.333 130 -144.666 130 -243.999zM752 308.999c0 63.333 -26 115.5 -78 156.5s-119 61.5 -201 61.5c-82.667 0 -150.167 -20.667 -202.5 -62s-78.5 -93.333 -78.5 -156c0 -65.333 25.667 -118.166 77 -158.499s119.333 -60.5 204 -60.5
c84 0 151.5 20.167 202.5 60.5s76.5 93.166 76.5 158.499zM643 768.999c-30 -56 -64.335 -84 -103.002 -84c-20 0 -44.667 6.16699 -74 18.5s-47.666 18.5 -54.999 18.5c-16 0 -33.667 -16 -53 -48l-59 46c44 52 80 78 108 78c16.667 0 39.334 -6.33301 68.001 -19
s48.667 -19 60 -19c17.333 0 35.333 15.333 54 46z" />
    <glyph glyph-name="odieresis" unicode="&#xf6;" horiz-adv-x="945" 
d="M877 309c0 -100.667 -43 -182.668 -129 -246.001c-73.333 -54 -165 -81 -275 -81s-202 27 -276 81c-86 62.667 -129 144.667 -129 246c0 100 43.333 181.333 130 244c76 55.333 167.667 83 275 83c106.667 0 198 -27.667 274 -83
c86.667 -63.333 130 -144.666 130 -243.999zM752 308.999c0 63.333 -26 115.5 -78 156.5s-119 61.5 -201 61.5c-82.667 0 -150.167 -20.667 -202.5 -62s-78.5 -93.333 -78.5 -156c0 -65.333 25.667 -118.166 77 -158.499s119.333 -60.5 204 -60.5
c84 0 151.5 20.167 202.5 60.5s76.5 93.166 76.5 158.499zM638 745.999c0 -16.667 -6.33301 -31.167 -19 -43.5s-27.667 -18.5 -45 -18.5s-32.166 6 -44.499 18s-18.5 26.667 -18.5 44s6.16699 32.333 18.5 45s27.166 19 44.499 19s32.333 -6.33301 45 -19
s19 -27.667 19 -45zM437 745.999c0 -16.667 -6.33301 -31.167 -19 -43.5s-27.667 -18.5 -45 -18.5s-32.166 6 -44.499 18s-18.5 26.667 -18.5 44s6.16699 32.333 18.5 45s27.166 19 44.499 19s32.333 -6.33301 45 -19s19 -27.667 19 -45z" />
    <glyph glyph-name="divide" unicode="&#xf7;" horiz-adv-x="833" 
d="M417 540c16.667 0 31 -6.16699 43 -18.5s18 -26.833 18 -43.5s-6 -31 -18 -43s-26.333 -18 -43 -18s-31 6 -43 18s-18 26.333 -18 43s6 31.167 18 43.5s26.333 18.5 43 18.5zM709 332v-68h-585v68h585zM417 179c16.667 0 31 -6 43 -18s18 -26.333 18 -43s-6 -31 -18 -43
s-26.333 -18 -43 -18c-17.333 0 -31.833 5.83301 -43.5 17.5s-17.5 26.167 -17.5 43.5c0 16.667 6 31 18 43s26.333 18 43 18z" />
    <glyph glyph-name="oslash" unicode="&#xf8;" horiz-adv-x="945" 
d="M727 566c100 -63.333 150 -149 150 -257c0 -100.667 -43 -182.667 -129 -246c-73.333 -54 -165 -81 -275 -81c-66 0 -132 13 -198 39l-55 -66h-92l83 99c-95.333 63.333 -143 148.333 -143 255c0 100 43.333 181.333 130 244c76 55.333 167.667 83 275 83
c62 0 125.667 -12.333 191 -37l47 55h91zM349 110c38 -13.333 79.333 -20 124 -20c84 0 151.5 20.167 202.5 60.5s76.5 93.166 76.5 158.499c0 68.667 -32.667 125.334 -98 170.001zM589 509c-40 12 -78.667 18 -116 18c-82.667 0 -150.167 -20.667 -202.5 -62
s-78.5 -93.333 -78.5 -156c0 -68 30.333 -124 91 -168z" />
    <glyph glyph-name="ugrave" unicode="&#xf9;" horiz-adv-x="911" 
d="M813 202c0 -64.667 -32.332 -117.5 -96.999 -158.5s-151.334 -61.5 -260.001 -61.5c-109.333 0 -196.333 20.5 -261 61.5s-97 93.833 -97 158.5v413h120v-389c0 -90.667 79.333 -136 238 -136c158 0 237 45.333 237 136v389h120v-413zM519.001 669h-61l-124 166h116z" />
    <glyph glyph-name="uacute" unicode="&#xfa;" horiz-adv-x="911" 
d="M813 202c0 -64.667 -32.332 -117.5 -96.999 -158.5s-151.334 -61.5 -260.001 -61.5c-109.333 0 -196.333 20.5 -261 61.5s-97 93.833 -97 158.5v413h120v-389c0 -90.667 79.333 -136 238 -136c158 0 237 45.333 237 136v389h120v-413zM580.001 835l-124 -166h-61l69 166
h116z" />
    <glyph glyph-name="ucircumflex" unicode="&#xfb;" horiz-adv-x="911" 
d="M813 202c0 -64.667 -32.332 -117.5 -96.999 -158.5s-151.334 -61.5 -260.001 -61.5c-109.333 0 -196.333 20.5 -261 61.5s-97 93.833 -97 158.5v413h120v-389c0 -90.667 79.333 -136 238 -136c158 0 237 45.333 237 136v389h120v-413zM649.001 668h-102l-91 99l-91 -99
h-102l153 166h80z" />
    <glyph glyph-name="udieresis" unicode="&#xfc;" horiz-adv-x="911" 
d="M813 202c0 -64.667 -32.332 -117.5 -96.999 -158.5s-151.334 -61.5 -260.001 -61.5c-109.333 0 -196.333 20.5 -261 61.5s-97 93.833 -97 158.5v413h120v-389c0 -90.667 79.333 -136 238 -136c158 0 237 45.333 237 136v389h120v-413zM621.001 746
c0 -16.667 -6.33301 -31.167 -19 -43.5s-27.667 -18.5 -45 -18.5s-32.166 6 -44.499 18s-18.5 26.667 -18.5 44s6.16699 32.333 18.5 45s27.166 19 44.499 19s32.333 -6.33301 45 -19s19 -27.667 19 -45zM420.001 746c0 -16.667 -6.33301 -31.167 -19 -43.5
s-27.667 -18.5 -45 -18.5s-32.166 6 -44.499 18s-18.5 26.667 -18.5 44s6.16699 32.333 18.5 45s27.166 19 44.499 19s32.333 -6.33301 45 -19s19 -27.667 19 -45z" />
    <glyph glyph-name="yacute" unicode="&#xfd;" horiz-adv-x="828" 
d="M823 615l-350 -373v-242h-120v242l-348 373h146l263 -280l263 280h146zM538 835l-124 -166h-61l69 166h116z" />
    <glyph glyph-name="thorn" unicode="&#xfe;" horiz-adv-x="836" 
d="M602 552c65.333 0 117.332 -17.668 155.999 -53.001s58 -82.666 58 -141.999c0 -62 -20.167 -109.833 -60.5 -143.5s-98.166 -50.5 -173.499 -50.5h-357v-163h-120v615h120v-63h377zM583.999 271.999c72.667 0 109 27.667 109 83c0 58.667 -38.667 88 -116 88h-352v-171
h359z" />
    <glyph glyph-name="ydieresis" unicode="&#xff;" horiz-adv-x="828" 
d="M823 615l-350 -373v-242h-120v242l-348 373h146l263 -280l263 280h146zM579 746c0 -16.667 -6.33301 -31.167 -19 -43.5s-27.667 -18.5 -45 -18.5s-32.166 6 -44.499 18s-18.5 26.667 -18.5 44s6.16699 32.333 18.5 45s27.166 19 44.499 19s32.333 -6.33301 45 -19
s19 -27.667 19 -45zM378 746c0 -16.667 -6.33301 -31.167 -19 -43.5s-27.667 -18.5 -45 -18.5s-32.166 6 -44.499 18s-18.5 26.667 -18.5 44s6.16699 32.333 18.5 45s27.166 19 44.499 19s32.333 -6.33301 45 -19s19 -27.667 19 -45z" />
    <glyph glyph-name="dotlessi" unicode="&#x131;" horiz-adv-x="330" 
d="M225 0h-120v615h120v-615z" />
    <glyph glyph-name="Lslash" unicode="&#x141;" horiz-adv-x="820" 
d="M800 0h-679v207l-49 -31v130l49 31v387h120v-313l243 151v-129l-243 -152v-172h559v-109z" />
    <glyph glyph-name="lslash" unicode="&#x142;" horiz-adv-x="725" 
d="M700 0h-595v164l-42 -26v128l42 26v323h120v-251l207 125v-128l-207 -125v-127h475v-109z" />
    <glyph glyph-name="OE" unicode="&#x152;" horiz-adv-x="1533" 
d="M1473 0h-935.001c-125.333 0 -228.666 29 -309.999 87c-96.667 68.667 -145 160 -145 274c0 111.333 48.333 202.333 145 273c82.667 60 185 90 307 90h910v-109h-610v-185h424v-109h-424v-212h638v-109zM714.999 170l0.000976562 392.999c0 34 -32 51 -96 51h-84
c-98.667 0 -177.834 -23.5 -237.501 -70.5s-89.5 -107.833 -89.5 -182.5c0 -77.333 29.167 -138.666 87.5 -183.999s138.5 -68 240.5 -68h89c60 0 90 20.333 90 61z" />
    <glyph glyph-name="oe" unicode="&#x153;" horiz-adv-x="1318" 
d="M1268 0h-805c-106.667 -0 -195.667 24.333 -267 73c-85.333 58.667 -128 136.667 -128 234c0 96 42.333 173.667 127 233c72 50 160.333 75 265 75h785v-109h-519v-132h361v-109h-361v-156h542v-109zM606 137l0.000976562 333.999c0 23.333 -21 35 -63 35h-83
c-80.667 0 -145.334 -18.5 -194.001 -55.5s-73 -84.833 -73 -143.5c0 -61.333 23.5 -109.666 70.5 -144.999s112.5 -53 196.5 -53h76c46.667 0 70 9.33301 70 28z" />
    <glyph glyph-name="Scaron" unicode="&#x160;" horiz-adv-x="939" 
d="M755 554c-107.333 54.667 -216.666 82 -327.999 82c-74 0 -130.667 -8.66699 -170 -26s-59 -41.333 -59 -72c0 -32 21 -55.333 63 -70c30 -10.667 79 -18 147 -22c100 -6.66699 166 -12 198 -16c90.667 -12 157.667 -34.333 201 -67s65 -79 65 -139
c0 -76.667 -34 -136 -102 -178s-165.667 -63 -293 -63c-184.667 0 -328.334 40.667 -431.001 122l66 87c113.333 -69.333 235.333 -104 366 -104c84.667 0 150.334 11.667 197.001 35c44.667 22.667 67 53.667 67 93c0 46 -29.333 76.667 -88 92
c-30.667 8 -113.334 16.333 -248.001 25c-119.333 8 -203 24 -251 48c-56 28 -84 75 -84 141c0 68 31.833 121.667 95.5 161s153.5 59 269.5 59c156 0 286.667 -35.667 392 -107zM648 945l-153 -166h-80l-153 166h102l91 -99l91 99h102z" />
    <glyph glyph-name="scaron" unicode="&#x161;" horiz-adv-x="814" 
d="M662 463c-80 42 -167.002 63.0029 -261.002 63.0029c-136.667 0 -205 -24.333 -205 -73c0 -28.667 25.667 -47.334 77 -56.001c70 -6 140 -12.333 210 -19c100.667 -10 172.334 -28 215.001 -54c47.333 -28.667 71 -72.334 71 -131.001c0 -66 -29.5 -117 -88.5 -153
s-144.5 -54 -256.5 -54c-158 0 -284.333 36 -379 108l65 85c84.667 -59.333 188.667 -89 312 -89c69.333 0 123 8.83301 161 26.5s57 41.167 57 70.5c0 32.667 -23.333 55.667 -70 69c-26 7.33301 -66.333 12.333 -121 15c-85.333 4 -137.666 7 -156.999 9
c-76 7.33301 -132 23.666 -168 48.999s-54 62.333 -54 111c0 58.667 28.833 105.167 86.5 139.5s138.5 51.5 242.5 51.5c138.667 0 251 -30 337 -90zM600.998 834.003l-153 -166h-80l-153 166h102l91 -99l91 99h102z" />
    <glyph glyph-name="Ydieresis" unicode="&#x178;" horiz-adv-x="922" 
d="M917 724l-396 -438v-286h-120v286l-396 438h149l308 -338l306 338h149zM626 857c0 -16.667 -6.33301 -31.167 -19 -43.5s-27.667 -18.5 -45 -18.5s-32.166 6 -44.499 18s-18.5 26.667 -18.5 44s6.16699 32.333 18.5 45s27.166 19 44.499 19s32.333 -6.33301 45 -19
s19 -27.667 19 -45zM425 857c0 -16.667 -6.33301 -31.167 -19 -43.5s-27.667 -18.5 -45 -18.5s-32.166 6 -44.499 18s-18.5 26.667 -18.5 44s6.16699 32.333 18.5 45s27.166 19 44.499 19s32.333 -6.33301 45 -19s19 -27.667 19 -45z" />
    <glyph glyph-name="Zcaron" unicode="&#x17d;" horiz-adv-x="887" 
d="M837 0h-787v109l598 506h-589v109h751v-109l-598 -506h625v-109zM638 945l-153 -166h-80l-153 166h102l91 -99l91 99h102z" />
    <glyph glyph-name="zcaron" unicode="&#x17e;" horiz-adv-x="767" 
d="M727 0h-687v109l492 397h-485v109h657v-109l-493 -397h516v-109zM578 834l-153 -166h-80l-153 166h102l91 -99l91 99h102z" />
    <glyph glyph-name="florin" unicode="&#x192;" horiz-adv-x="553" 
d="M537 710l-38.001 -94.001c-28.667 13.333 -51 20 -67 20c-34 0 -54.333 -17.333 -61 -52l-32 -159h105v-96h-124l-60 -322c-6.66699 -36 -24.667 -66 -54 -90s-63.666 -36 -102.999 -36c-30 0 -64.667 7 -104 21l27 96c25.333 -13.333 48.333 -20 69 -20
c24.667 0 39 10.333 43 31l60 320h-93v96h111c16.667 110.667 39.667 189.334 69 236.001c32 50.667 78 76 138 76c31.333 0 69.333 -9 114 -27z" />
    <glyph glyph-name="circumflex" unicode="&#x2c6;" 
d="M443 668h-102l-91 99l-91 -99h-102l153 166h80z" />
    <glyph glyph-name="caron" unicode="&#x2c7;" 
d="M444 834l-153 -166h-80l-153 166h102l91 -99l91 99h102z" />
    <glyph glyph-name="breve" unicode="&#x2d8;" 
d="M398 797c-19.333 -86 -68.333 -129 -147 -129c-78 0 -127.333 43 -148 129h83c8 -38 29.667 -57 65 -57s57 19 65 57h82z" />
    <glyph glyph-name="dotaccent" unicode="&#x2d9;" 
d="M314 746c0 -16.667 -6.33301 -31.167 -19 -43.5s-27.667 -18.5 -45 -18.5s-32.166 6 -44.499 18s-18.5 26.667 -18.5 44s6.16699 32.333 18.5 45s27.166 19 44.499 19s32.333 -6.33301 45 -19s19 -27.667 19 -45z" />
    <glyph glyph-name="ring" unicode="&#x2da;" 
d="M363 760c0 -26 -10.833 -47.833 -32.5 -65.5s-48.5 -26.5 -80.5 -26.5s-58.667 8.83301 -80 26.5s-32 39.5 -32 65.5s10.667 48 32 66s48 27 80 27s58.833 -9 80.5 -27s32.5 -40 32.5 -66zM303 760c0 11.333 -5.16699 21.166 -15.5 29.499s-22.833 12.5 -37.5 12.5
c-15.333 0 -28 -4.16699 -38 -12.5s-15 -18.166 -15 -29.499s5 -21 15 -29s22.667 -12 38 -12c14.667 0 27.167 4 37.5 12s15.5 17.667 15.5 29z" />
    <glyph glyph-name="ogonek" unicode="&#x2db;" 
d="M350 -189c-32 -10.667 -63.667 -16 -95 -16c-82 0 -123 31.667 -123 95c0 51.333 36.333 91 109 119h96c-74 -36 -111 -75 -111 -117c0 -36.667 18.333 -55 55 -55c12 0 30.333 4 55 12z" />
    <glyph glyph-name="tilde" unicode="&#x2dc;" 
d="M420 769c-30 -56 -64.335 -84 -103.002 -84c-20 0 -44.667 6.16699 -74 18.5s-47.666 18.5 -54.999 18.5c-16 0 -33.667 -16 -53 -48l-59 46c44 52 80 78 108 78c16.667 0 39.334 -6.33301 68.001 -19s48.667 -19 60 -19c17.333 0 35.333 15.333 54 46z" />
    <glyph glyph-name="hungarumlaut" unicode="&#x2dd;" 
d="M464 834l-107 -166h-61l52 166h116zM286 834l-107 -166h-61l52 166h116z" />
    <glyph glyph-name="Delta" unicode="&#x394;" horiz-adv-x="612" 
d="M595 0h-574l276 672h22zM72 32h399l-198 491z" />
    <glyph glyph-name="Delta" unicode="&#x2206;" horiz-adv-x="612" 
d="M595 0h-574l276 672h22zM72 32h399l-198 491z" />
    <glyph glyph-name="Omega" unicode="&#x3a9;" horiz-adv-x="768" 
d="M593 90c32 0 53.998 5.49902 65.998 16.499s19.333 34.167 22 69.5h23l-10 -176h-252v170c50 10 89 37 117 81c27.333 42 41 94.333 41 157c0 70.667 -19.667 128.5 -59 173.5s-91.666 67.5 -156.999 67.5s-117.666 -22.333 -156.999 -67s-59 -102.667 -59 -174
c0 -62.667 13.333 -115 40 -157c28 -44 67.333 -71 118 -81v-170h-252l-10 176h23c2 -34.667 9.16699 -57.667 21.5 -69s34.5 -17 66.5 -17h123v59c-79.333 14.667 -140.5 44.5 -183.5 89.5s-64.5 101.5 -64.5 169.5c0 80 30.5 144.5 91.5 193.5s141.833 73.5 242.5 73.5
s181.5 -24.5 242.5 -73.5s91.5 -113.5 91.5 -193.5c0 -67.333 -21.5 -123.666 -64.5 -168.999s-104.167 -75.333 -183.5 -90v-59h123z" />
    <glyph glyph-name="Omega" unicode="&#x2126;" horiz-adv-x="768" 
d="M593 90c32 0 53.998 5.49902 65.998 16.499s19.333 34.167 22 69.5h23l-10 -176h-252v170c50 10 89 37 117 81c27.333 42 41 94.333 41 157c0 70.667 -19.667 128.5 -59 173.5s-91.666 67.5 -156.999 67.5s-117.666 -22.333 -156.999 -67s-59 -102.667 -59 -174
c0 -62.667 13.333 -115 40 -157c28 -44 67.333 -71 118 -81v-170h-252l-10 176h23c2 -34.667 9.16699 -57.667 21.5 -69s34.5 -17 66.5 -17h123v59c-79.333 14.667 -140.5 44.5 -183.5 89.5s-64.5 101.5 -64.5 169.5c0 80 30.5 144.5 91.5 193.5s141.833 73.5 242.5 73.5
s181.5 -24.5 242.5 -73.5s91.5 -113.5 91.5 -193.5c0 -67.333 -21.5 -123.666 -64.5 -168.999s-104.167 -75.333 -183.5 -90v-59h123z" />
    <glyph glyph-name="pi" unicode="&#x3c0;" horiz-adv-x="549" 
d="M404 378c-2.66699 -88 -3.99902 -153.333 -3.99902 -196c0 -66 2.66699 -108 8 -126c4.66699 -15.333 15 -23 31 -23c21.333 0 36.333 9 45 27s13 48.333 13 91h25c0 -107.333 -35.333 -161 -106 -161c-43.333 0 -72.333 17.667 -87 53
c-10.667 27.333 -16 77.666 -16 150.999c0 -4 1.33301 57.333 4 184h-137c0 -149.333 -4.33301 -247.333 -13 -294c-12.667 -62.667 -39.334 -94 -80.001 -94c-30.667 0 -51 16 -61 48c-6 18 -9 46.667 -9 86h24c0.666992 -34.667 13 -52 37 -52c30 0 50.667 25 62 75
c9.33301 42 14.666 119 15.999 231h-22c-51.333 0 -80.333 -17.333 -87 -52h-23c2.66699 46.667 16.334 79.334 41.001 98.001c22.667 16.667 62 25 118 25h254c44 0 66 7.33301 66 22v1h23v-3c0 -33.333 -7.5 -56.833 -22.5 -70.5s-40.167 -20.5 -75.5 -20.5
c-10.667 -0.666992 -18.667 -0.666992 -24 0z" />
    <glyph glyph-name="endash" unicode="&#x2013;" horiz-adv-x="845" 
d="M777 265h-717v109h717v-109z" />
    <glyph glyph-name="emdash" unicode="&#x2014;" horiz-adv-x="975" 
d="M915 265h-855v109h855v-109z" />
    <glyph glyph-name="quoteleft" unicode="&#x2018;" horiz-adv-x="275" 
d="M215 478h-155v137c0 72.667 41.667 109 125 109h23v-59c-50 -0.666992 -75 -14.667 -75 -42v-36h82v-109z" />
    <glyph glyph-name="quoteright" unicode="&#x2019;" horiz-adv-x="275" 
d="M215 587c0 -72.667 -41.667 -109 -125 -109h-23v59c50 0 75 14 75 42v36h-82v109h155v-137z" />
    <glyph glyph-name="quotesinglbase" unicode="&#x201a;" horiz-adv-x="365" 
d="M260 -28c0 -72.667 -41.667 -109 -125 -109h-23v59c50 0.666992 75 14.667 75 42v36h-82v109h155v-137z" />
    <glyph glyph-name="quotedblleft" unicode="&#x201c;" horiz-adv-x="513" 
d="M453 478h-155v137c0 72.667 41.667 109 125 109h23v-59c-50 -0.666992 -75 -14.667 -75 -42v-36h82v-109zM215 478h-155v137c0 72.667 41.667 109 125 109h23v-59c-50 -0.666992 -75 -14.667 -75 -42v-36h82v-109z" />
    <glyph glyph-name="quotedblright" unicode="&#x201d;" horiz-adv-x="513" 
d="M453 587c0 -72.667 -41.667 -109 -125 -109h-23v59c50 0 75 14 75 42v36h-82v109h155v-137zM215 587c0 -72.667 -41.667 -109 -125 -109h-23v59c50 0 75 14 75 42v36h-82v109h155v-137z" />
    <glyph glyph-name="quotedblbase" unicode="&#x201e;" horiz-adv-x="593" 
d="M488 -28c0 -72.667 -41.667 -109 -125 -109h-23v59c50 0.666992 75 14.667 75 42v36h-82v109h155v-137zM260 -28c0 -72.667 -41.667 -109 -125 -109h-23v59c50 0.666992 75 14.667 75 42v36h-82v109h155v-137z" />
    <glyph glyph-name="dagger" unicode="&#x2020;" horiz-adv-x="450" 
d="M412 476h-147l24 -548h-130l21 548h-151v101h146l-18 216h132l-20 -216h143v-101z" />
    <glyph glyph-name="daggerdbl" unicode="&#x2021;" horiz-adv-x="477" 
d="M422 140h-133l10 -212h-130l8 212h-138v101h141l10 235h-151v101h146l-18 216h132l-20 -216h143v-101h-147l10 -235h137v-101z" />
    <glyph glyph-name="bullet" unicode="&#x2022;" horiz-adv-x="532" 
d="M448 355c0 -46.667 -18.333 -87.667 -55 -123c-34 -32.667 -76 -49 -126 -49s-92.333 16.333 -127 49c-36.667 34.667 -55 75.667 -55 123c0 46.667 18.333 87.667 55 123c34 32.667 76.333 49 127 49c50 0 92 -16.333 126 -49c36.667 -35.333 55 -76.333 55 -123z" />
    <glyph glyph-name="ellipsis" unicode="&#x2026;" horiz-adv-x="785" 
d="M600 317c-67.333 -64 -153 -95.998 -257 -95.998c-82.667 0 -150.334 18.5 -203.001 55.5s-79 82.833 -79 137.5c0 63.333 27.333 114.166 82 152.499s128.334 57.5 221.001 57.5c108.667 0 195.834 -29.333 261.501 -88s98.5 -134.334 98.5 -227.001
c0 -96 -36.667 -174 -110 -234c-68.667 -57.333 -152.334 -86 -251.001 -86c-124 0 -218.333 31.333 -283 94l84 82c61.333 -44.667 125 -67 191 -67c74 0 133.5 19 178.5 57s67.5 87 67.5 147c0 4.66699 -0.333008 9.66699 -1 15zM571 418.002
c-38.667 62.667 -110.667 93.998 -216 93.998c-54.667 0 -97.167 -8.66699 -127.5 -26s-45.5 -40.666 -45.5 -69.999c0 -27.333 15.167 -49.666 45.5 -66.999s71.833 -26 124.5 -26c99.333 0 172.333 31.667 219 95z" />
    <glyph glyph-name="perthousand" unicode="&#x2030;" horiz-adv-x="1573" 
d="M1512 183c0 -54.667 -19.833 -101.167 -59.5 -139.5s-86.834 -57.5 -141.501 -57.5c-55.333 0 -102.833 19.167 -142.5 57.5s-59.5 84.833 -59.5 139.5s19.833 101.167 59.5 139.5s87.167 57.5 142.5 57.5c54.667 0 101.834 -19.167 141.501 -57.5
s59.5 -84.833 59.5 -139.5zM1039 183c0 -54.667 -19.833 -101.167 -59.5 -139.5s-87.167 -57.5 -142.5 -57.5s-102.833 19.167 -142.5 57.5s-59.5 84.833 -59.5 139.5s19.833 101.167 59.5 139.5s87.167 57.5 142.5 57.5s102.833 -19.167 142.5 -57.5
s59.5 -84.833 59.5 -139.5zM934 724l-646 -734h-137l647 734h136zM450 542c0 -54 -19.833 -100.167 -59.5 -138.5s-86.834 -57.5 -141.501 -57.5c-56 0 -103.667 19 -143 57s-59 84.333 -59 139s19.833 101.167 59.5 139.5s87.167 57.5 142.5 57.5
c54.667 0 101.834 -19.167 141.501 -57.5s59.5 -84.833 59.5 -139.5zM1405 183c0 27.333 -9.00195 50.333 -27.002 69s-40.333 28 -67 28c-27.333 0 -50.166 -9.33301 -68.499 -28s-27.5 -41.667 -27.5 -69s9.33301 -50.333 28 -69s41.334 -28 68.001 -28s49 9.33301 67 28
s27 41.667 27 69zM931.998 183c0 27.333 -9.16895 50.333 -27.502 69s-40.833 28 -67.5 28c-27.333 0 -50.166 -9.33301 -68.499 -28s-27.5 -41.667 -27.5 -69s9.33301 -50.333 28 -69s41.334 -28 68.001 -28s49.167 9.33301 67.5 28s27.5 41.667 27.5 69zM342.996 542
c0 27.333 -9.00195 50.333 -27.002 69s-40.333 28 -67 28c-27.333 0 -50.166 -9.33301 -68.499 -28s-27.5 -41.667 -27.5 -69s9.33301 -50.333 28 -69s41.334 -28 68.001 -28s49 9.33301 67 28s27 41.667 27 69z" />
    <glyph glyph-name="guilsinglleft" unicode="&#x2039;" horiz-adv-x="460" 
d="M387 484l-161 -163l159 -162h-147l-165 162l169 163h145z" />
    <glyph glyph-name="guilsinglright" unicode="&#x203a;" horiz-adv-x="460" 
d="M387 321l-165 -162h-147l159 162l-161 163h145z" />
    <glyph glyph-name="fraction" unicode="&#x2044;" horiz-adv-x="294" 
d="M539 724l-647 -734h-137l648 734h136z" />
    <glyph glyph-name="trademark" unicode="&#x2122;" horiz-adv-x="409" 
d="M376 548h-39v125l-46 -125h-18l-47 125v-125h-40v166h58l39 -100l36 100h57v-166zM153 681h-51v-133h-41v133h-51v33h143v-33z" />
    <glyph glyph-name="partialdiff" unicode="&#x2202;" horiz-adv-x="494" 
d="M358 287c8 30 12 79.334 12 148.001c0 111.333 -21 167 -63 167c-13.333 0 -30.166 -11.667 -50.499 -35s-38.833 -35 -55.5 -35c-24.667 0 -37 10.667 -37 32c0 18.667 9.66699 35.167 29 49.5s43.666 21.5 72.999 21.5c51.333 0 92.333 -23 123 -69
c31.333 -48.667 47 -115 47 -199c0 -110.667 -22 -202.334 -66 -275.001c-42.667 -70 -94.667 -105 -156 -105c-44.667 0 -80.667 16.333 -108 49c-29.333 34 -44 80.333 -44 139c0 56 17.667 104.167 53 144.5s77 60.5 125 60.5c58 0 97.333 -31 118 -93zM256 349.001
c-34.667 0 -63 -19.333 -85 -58c-23.333 -40.667 -35 -95 -35 -163c0 -79.333 28 -119 84 -119c34.667 0 63.5 20.5 86.5 61.5s34.5 92.167 34.5 153.5c0 83.333 -28.333 125 -85 125z" />
    <glyph glyph-name="product" unicode="&#x220f;" horiz-adv-x="823" 
d="M118 -184v896h-88v32h767v-32h-88v-896h88v-32h-264v32h84v896h-407v-896h84v-32h-264v32h88z" />
    <glyph glyph-name="summation" unicode="&#x2211;" horiz-adv-x="713" 
d="M633 514h-34c-22 72 -52.667 123 -92 153s-96.666 45 -171.999 45h-142l325 -446l-359 -394h212c76 0 130.667 9 164 27c37.333 20 67.666 60.333 90.999 121h35l-53 -236h-572l398 436l-384 524h550z" />
    <glyph glyph-name="radical" unicode="&#x221a;" horiz-adv-x="549" 
d="M594 764h-57l-290 -784h-32l-156 431l-61 -22l-12 39l138 48l125 -346l252 681h93v-47z" />
    <glyph glyph-name="infinity" unicode="&#x221e;" horiz-adv-x="713" 
d="M366 238c-43.333 -82.667 -95.666 -124 -156.999 -124c-42.667 0 -79.334 17.333 -110.001 52s-46 78.667 -46 132c0 55.333 13.5 100.166 40.5 134.499s62.167 51.5 105.5 51.5c60.667 0 110 -41.333 148 -124c42 82.667 94.333 124 157 124
c42.667 0 79.167 -17.333 109.5 -52s45.5 -78.667 45.5 -132c0 -55.333 -13.333 -100.166 -40 -134.499s-61.667 -51.5 -105 -51.5c-62 0 -111.333 41.333 -148 124zM336 334c-31.333 57.333 -78.333 86.001 -141 86.001c-34 0 -62 -11.667 -84 -35s-33 -53.333 -33 -90
s10 -66.334 30 -89.001s45.333 -34 76 -34c29.333 0 56.333 14 81 42c21.333 24.667 45 64.667 71 120zM376 264.001c30.667 -57.333 78 -85.999 142 -85.999c34 0 62 11.667 84 35s33 53.333 33 90c0 37.333 -10 67.166 -30 89.499s-46.667 33.5 -80 33.5
c-51.333 0 -101 -54 -149 -162z" />
    <glyph glyph-name="integral" unicode="&#x222b;" horiz-adv-x="274" 
d="M283 757c23.333 0 42.666 -6.16699 57.999 -18.5s23 -28.5 23 -48.5c0 -32 -16.333 -48 -49 -48c-19.333 0 -33.833 12.333 -43.5 37s-19.5 37 -29.5 37c-25.333 0 -41.333 -36.333 -48 -109c-2 -21.333 -6 -124.333 -12 -309c-6 -181.333 -21.667 -302 -47 -362
c-33.333 -78 -81.333 -117 -144 -117c-23.333 0 -42.666 6.16699 -57.999 18.5s-23 28.5 -23 48.5c0 31.333 16.333 47 49 47c19.333 0 34 -12.167 44 -36.5s20 -36.5 30 -36.5c24 0 39.667 36.333 47 109c2.66699 29.333 6.66699 132.333 12 309
c5.33301 179.333 21 300 47 362c32.667 78 80.667 117 144 117z" />
    <glyph glyph-name="approxequal" unicode="&#x2248;" horiz-adv-x="549" 
d="M385 243c-22 0 -56.499 7.83301 -103.499 23.5s-84.167 23.5 -111.5 23.5c-40 0 -90.667 -21.667 -152 -65v69c57.333 37.333 109.666 56 156.999 56c24 0 52 -4.66699 84 -14l82 -26c18.667 -4.66699 35 -7 49 -7c36 0 83 21 141 63v-69c-54 -36 -102.667 -54 -146 -54z
M385.001 124c-21.333 0 -55.666 7.83301 -102.999 23.5s-86.333 23.5 -117 23.5c-36.667 0 -85.667 -21.667 -147 -65v69c59.333 38 112 57 158 57c24 0 52 -5 84 -15l81 -25c18.667 -5.33301 35 -8 49 -8c35.333 0 82.333 21.333 141 64v-70
c-52.667 -36 -101.334 -54 -146.001 -54z" />
    <glyph glyph-name="approxequal" unicode="&#x22f2;" horiz-adv-x="549" 
d="M385 243c-22 0 -56.499 7.83301 -103.499 23.5s-84.167 23.5 -111.5 23.5c-40 0 -90.667 -21.667 -152 -65v69c57.333 37.333 109.666 56 156.999 56c24 0 52 -4.66699 84 -14l82 -26c18.667 -4.66699 35 -7 49 -7c36 0 83 21 141 63v-69c-54 -36 -102.667 -54 -146 -54z
M385.001 124c-21.333 0 -55.666 7.83301 -102.999 23.5s-86.333 23.5 -117 23.5c-36.667 0 -85.667 -21.667 -147 -65v69c59.333 38 112 57 158 57c24 0 52 -5 84 -15l81 -25c18.667 -5.33301 35 -8 49 -8c35.333 0 82.333 21.333 141 64v-70
c-52.667 -36 -101.334 -54 -146.001 -54z" />
    <glyph glyph-name="notequal" unicode="&#x2260;" horiz-adv-x="549" 
d="M222 139l-117 -117l-39 40l77 77h-95v58h148l79 78h-227v58h279l117 117l40 -40l-78 -77h95v-58h-147l-79 -78h226v-58h-279z" />
    <glyph glyph-name="lessequal" unicode="&#x2264;" horiz-adv-x="549" 
d="M47 270v61l456 143v-64l-351 -110l351 -109v-64zM46 0v62h457v-62h-457z" />
    <glyph glyph-name="greaterequal" unicode="&#x2265;" horiz-adv-x="549" 
d="M46 127v64l351 109l-351 110v64l457 -143v-61zM46 0v62h457v-62h-457z" />
    <glyph glyph-name="lozenge" unicode="&#x25ca;" horiz-adv-x="494" 
d="M247 807l244 -518l-244 -522l-244 522zM247 688l-188 -399l188 -403l188 403z" />
    <glyph glyph-name="fi" unicode="&#xf001;" horiz-adv-x="1099" 
d="M994 0h-120v615h120v-615zM744 506h-519v-132h361v-109h-361v-265h-120v615h639v-109z" />
    <glyph glyph-name="fl" unicode="&#xf002;" horiz-adv-x="1494" 
d="M1469 0h-595v615h120v-506h475v-109zM744 506h-519v-132h361v-109h-361v-265h-120v615h639v-109z" />
    <glyph glyph-name=".null" horiz-adv-x="0" 
 />
    <glyph glyph-name="nonmarkingreturn" horiz-adv-x="300" 
 />
    <glyph glyph-name="glyph246" horiz-adv-x="300" 
 />
    </font>
</defs>
</svg>
